* Dettagli Torrent   globale  | Commenti (0) 


- Gold - La Grande Truffa (2016).Italian.English.Ac3.5.1.sub.ita.eng.iCV-MIRCrew -


Download via torrent:
Categoria bittorrent BDRip
Descrizione
Gold - La Grande Truffa (2016).Italian.English.Ac3.5.1.sub.ita.eng.iCV-MIRCrew


[center]by www.icv-crew.org


NO FOUND ONLY ORIGINAL RELEASE



My release is always in double track audio italian and Original audio
for select it use VLC or dvd player home
not use wmp

Gold - La Grande Truffa (2016)







   DATA USCITA: 04 maggio 2017
   GENERE: Avventura, Drammatico, Thriller
   ANNO: 2016
   REGIA: Stephen Gaghan
   
   PAESE: USA
   DURATA: 120 Min
   DISTRIBUZIONE: Eagle Pictures



Matthew McConaughey, Bryce Dallas Howard, Toby Kebbell, Edgar Ramirez, Rachael Taylor, Corey Stoll, Bill Camp, Bruce Greenwood, Michael Landes, Stacy Keach




   Robert Carlyle: Donald "Don" Harris
   Jeremy Renner: Sergente Doyle
   Rose Byrne: Scarlett Ross
   Catherine McCormack: Alice Harris
   Harold Perrineau: Flynn
   Imogen Poots: Tammy Harris
   Mackintosh Muggleton: Andy Harris
   Idris Elba: Stone



Kenny Wells (Matthew McConaughey) rincorre da anni il luccicante sogno americano. Mettendo in pratica gli insegnamenti di suo padre, per realizzarlo è disposto ad arrivare fin nell'inesplorata giungla indonesiana e scavare nella terra a mani nude. E' proprio laggiù che, dopo aver venduto i suoi averi e scommesso ogni cosa sull'impresa, insieme al geologo Michael Acosta (Edgar Ramirez) si imbatte in una vera e propria "montagna di soldi".........



Kenny Wells, a prospector desperate for a lucky break, teams up with a similarly eager geologist and sets off on a journey to find gold in the uncharted jungle of Indonesia.








[spoiler]
General
Complete name                            : Gold La Grande Truffa (2016).Ita.Eng.sub.ita.eng.iCV-MIRCrew.avi
Format                                   : AVI
Format/Info                              : Audio Video Interleave
Format profile                           : OpenDML
File size                                : 1.99 GiB
Duration                                 : 2h 0mn
Overall bit rate                         : 2 373 Kbps
Movie name                               : icv-crew
Recorded date                            : 2017
Writing application                      : VirtualDubMod 1.5.10.2 (build 2540/release)
Writing library                          : VirtualDubMod build 2540/release
Copyright                                : robbyrs

Video
ID                                       : 0
Format                                   : MPEG-4 Visual
Format profile                           : [email protected]
Format settings, BVOP                    : No
Format settings, QPel                    : No
Format settings, GMC                     : No warppoints
Format settings, Matrix                  : Default (H.263)
Codec ID                                 : XVID
Codec ID/Hint                            : XviD
Duration                                 : 2h 0mn
Bit rate                                 : 1 458 Kbps
Width                                    : 720 pixels
Height                                   : 300 pixels
Display aspect ratio                     : 2.40:1
Frame rate                               : 24.000 fps
Color space                              : YUV
Chroma subsampling                       : 4:2:0
Bit depth                                : 8 bits
Scan type                                : Progressive
Compression mode                         : Lossy
Bits/(Pixel*Frame)                       : 0.281
Stream size                              : 1.22 GiB (61%)
Writing library                          : XviD 64

Audio #1
ID                                       : 1
Format                                   : AC-3
Format/Info                              : Audio Coding 3
Mode extension                           : CM (complete main)
Codec ID                                 : 2000
Duration                                 : 2h 0mn
Bit rate mode                            : Constant
Bit rate                                 : 448 Kbps
Channel(s)                               : 6 channels
Channel positions                        : Front: L C R, Side: L R, LFE
Sampling rate                            : 48.0 KHz
Bit depth                                : 16 bits
Compression mode                         : Lossy
Stream size                              : 385 MiB (19%)
Alignment                                : Split accross interleaves
Interleave, duration                     : 42 ms (1.00 video frame)
Interleave, preload duration             : 500 ms

Audio #2
ID                                       : 2
Format                                   : AC-3
Format/Info                              : Audio Coding 3
Mode extension                           : CM (complete main)
Codec ID                                 : 2000
Duration                                 : 2h 0mn
Bit rate mode                            : Constant
Bit rate                                 : 448 Kbps
Channel(s)                               : 6 channels
Channel positions                        : Front: L C R, Side: L R, LFE
Sampling rate                            : 48.0 KHz
Bit depth                                : 16 bits
Compression mode                         : Lossy
Stream size                              : 385 MiB (19%)
Alignment                                : Split accross interleaves
Interleave, duration                     : 42 ms (1.00 video frame)
Interleave, preload duration             : 500 ms


[/spoiler]

[/center]

Info: Per scaricare devi usare un client come uTorrent o Transmission
AnnounceURL
udp://tracker.coppersurfer.tk:6969/announce
Hash c1d5532b018bb8f7109339246501a532bace9f6f
Peers seeds: 190 , leech: 94
Size 1.99 GB
Completato 2255x
Aggiunto 05.09.17 - 09:09:19
Uploader   robbyrs
Votazione (Voti: 2)


Condividi questo bittorrent:


html/blog:


bbcode/forum:




Aggiungi Commento


counter