* Dettagli Torrent   globale  | Commenti (0) 


- 28 Giorni dopo (2002).H264.Italian.English.Ac3.5.1.sub.ita.eng.iCV-MIRCrew -


Download via torrent:
Categoria bittorrent BDRip
Descrizione
28 Days Later - 28 Giorni dopo (2002).H264.Italian.English.Ac3.5.1.sub.ita.eng.iCV-MIRCrew


[center]by www.icv-crew.org


NO FOUND ONLY ORIGINAL RELEASE



My release is always in double track audio italian and Original audio
for select it use VLC or dvd player home
not use wmp

28 Giorni dopo - Days Later (2002)







Titolo originale 28 Days Later
Lingua originale inglese
Paese di produzione Regno Unito
Anno 2002
Durata 112 min
Rapporto 1.85:1
Genere orrore, thriller, drammatico, fantascienza
Regia Danny Boyle
Sceneggiatura Alex Garland
Produttore Robert How, Andrew Macdonald
Casa di produzione British Film Council, DNA Films
Distribuzione (Italia) 20th Century Fox
Fotografia Anthony Dod Mantle
Montaggio Chris Gill
Effetti speciali Richard Conway, Bob Hollow
Musiche John Murphy
Scenografia Mark Tildesley
Costumi Rachael Fleming




   Cillian Murphy: Jim
   Naomie Harris: Selena
   Megan Burns: Hannah
   Brendan Gleeson: Frank
   Noah Huntley: Mark
   Christopher Eccleston: maggiore Henry West
   Stuart McQuarrie: sergente Farrell
   Ricci Harnett: caporale Mitchell
   Leo Bill: soldato Jones
   Luke Mably: soldato Clifton
   Junior Laniyan: soldato Bell
   Ray Panthaki: soldato Bedford
   Sanjay Rambaruth: soldato Davis
   Marvin Campbell: soldato Mailer
   David Schneider: ricercatore



In Inghilterra un gruppo di attivisti animalisti (due uomini e una donna), si introduce di notte in un centro di ricerca scientifico con l'intento di liberare degli scimpanzé geneticamente modificati e impiegate come cavie (una di queste, legata a una sedia, viene costretta a osservare su un monitor una serie di filmati di rabbia truculenta umana). Gli intrusi si accingono ad aprire le gabbie quando un medico ricercatore li scopre e................



Four weeks after a mysterious, incurable virus spreads throughout the UK, a handful of survivors try to find sanctuary.












[spoiler]
General
Unique ID                                : 205652166736715608810021751860225144640 (0x9AB72AA699F5CCBD9A279F8D27547740)
Complete name                            : 28 Giorni dopo - Days Later (2002).H264.ita.eng.iCV-MIRCrew.mkv
Format                                   : Matroska
Format version                           : Version 2
File size                                : 1.73 GiB
Duration                                 : 1h 53mn
Overall bit rate                         : 2 190 Kbps
Movie name                               : icv-crew
Encoded date                             : UTC 2017-09-04T07:02:27Z
Writing application                      : mkvmerge v5.4.0 ('Piper') built on Mar 10 2012 13:34:39
Writing library                          : Lavf55.12.0

Video
ID                                       : 1
Format                                   : AVC
Format/Info                              : Advanced Video Codec
Format profile                           : [email protected]
Format settings, CABAC                   : Yes
Format settings, ReFrames                : 4 frames
Muxing mode                              : Header stripping
Codec ID                                 : V_MPEG4/ISO/AVC
Duration                                 : 1h 53mn
Bit rate                                 : 1 300 Kbps
Width                                    : 720 pixels
Height                                   : 384 pixels
Display aspect ratio                     : 1.875
Frame rate mode                          : Variable
Frame rate                               : 23.976 fps
Color space                              : YUV
Chroma subsampling                       : 4:2:0
Bit depth                                : 8 bits
Scan type                                : Progressive
Bits/(Pixel*Frame)                       : 0.196
Stream size                              : 1 012 MiB (57%)
Title                                    : 28 Giorni dopo - Days Later (2002).H264.ita.eng.iCV-MIRCrew
Writing library                          : x264 core 142 r2479 dd79a61
Encoding settings                        : cabac=1 / ref=1 / deblock=1:1:1 / analyse=0x1:0x111 / me=hex / subme=2 / psy=1 / psy_rd=0.40:0.00 / mixed_ref=0 / me_range=16 / chroma_me=1 / trellis=0 / 8x8dct=0 / cqm=0 / deadzone=21,11 / fast_pskip=1 / chroma_qp_offset=0 / threads=12 / lookahead_threads=3 / sliced_threads=0 / nr=0 / decimate=1 / interlaced=0 / bluray_compat=0 / constrained_intra=0 / bframes=5 / b_pyramid=2 / b_adapt=1 / b_bias=0 / direct=1 / weightb=1 / open_gop=0 / weightp=1 / keyint=240 / keyint_min=24 / scenecut=40 / intra_refresh=0 / rc_lookahead=10 / rc=abr / mbtree=1 / bitrate=1300 / ratetol=1.0 / qcomp=0.60 / qpmin=0 / qpmax=69 / qpstep=4 / vbv_maxrate=20000 / vbv_bufsize=25000 / nal_hrd=none / filler=0 / ip_ratio=1.40 / aq=1:0.60
Language                                 : Italian
Default                                  : Yes
Forced                                   : No
Color primaries                          : BT.709-5, BT.1361, IEC 61966-2-4, SMPTE RP177
Transfer characteristics                 : BT.709-5, BT.1361
Matrix coefficients                      : BT.709-5, BT.1361, IEC 61966-2-4 709, SMPTE RP177

Audio #1
ID                                       : 2
Format                                   : AC-3
Format/Info                              : Audio Coding 3
Mode extension                           : CM (complete main)
Muxing mode                              : Header stripping
Codec ID                                 : A_AC3
Duration                                 : 1h 53mn
Bit rate mode                            : Constant
Bit rate                                 : 448 Kbps
Channel(s)                               : 6 channels
Channel positions                        : Front: L C R, Side: L R, LFE
Sampling rate                            : 48.0 KHz
Bit depth                                : 16 bits
Compression mode                         : Lossy
Delay relative to video                  : -5ms
Stream size                              : 363 MiB (20%)
Title                                    : Surround
Language                                 : Italian
Default                                  : Yes
Forced                                   : No

Audio #2
ID                                       : 3
Format                                   : AC-3
Format/Info                              : Audio Coding 3
Mode extension                           : CM (complete main)
Muxing mode                              : Header stripping
Codec ID                                 : A_AC3
Duration                                 : 1h 53mn
Bit rate mode                            : Constant
Bit rate                                 : 448 Kbps
Channel(s)                               : 6 channels
Channel positions                        : Front: L C R, Side: L R, LFE
Sampling rate                            : 48.0 KHz
Bit depth                                : 16 bits
Compression mode                         : Lossy
Delay relative to video                  : -5ms
Stream size                              : 363 MiB (20%)
Title                                    : Surround
Language                                 : English
Default                                  : No
Forced                                   : No



[/spoiler]

[/center]

Info: Per scaricare devi usare un client come uTorrent o Transmission
AnnounceURL
udp://tracker.coppersurfer.tk:6969/announce
Hash 3e18253d9d06c280a0514474e570b47fe2f1f044
Peers seeds: 53 , leech: 10
Size 1.73 GB
Completato 805x
Aggiunto 05.09.17 - 08:09:22
Uploader   robbyrs
Votazione (Voti: 1)


Condividi questo bittorrent:


html/blog:


bbcode/forum:




Aggiungi Commento


counter