* Dettagli Torrent   globale  | Commenti (0) 


- Doomsday - Il giorno del giudizio (2008).H264.Italian.English.Ac3.5..iCV-MIRCrew -


Download via torrent:
Categoria bittorrent BDRip
Descrizione
Doomsday - Il giorno del giudizio (200.H264.Italian.English.Ac3.5..iCV-MIRCrew

[center]by www.icv-crew.org


NO FOUND ONLY ORIGINAL RELEASE



My release is always in double track audio italian and Original audio
for select it use VLC or dvd player home
not use wmp

Doomsday - Il giorno del giudizio (200







Titolo originale Doomsday
Lingua originale Inglese
Paese di produzione Regno Unito
Anno 2008
Durata 105 min
Genere azione, fantascienza, orrore
Regia Neil Marshall
Soggetto Neil Marshall
Sceneggiatura Neil Marshall
Produttore Benedict Carver, Steven Paul
Produttore esecutivo Marc D. Evans, Trevor Macy, Peter McAleese, Andrew Rona
Casa di produzione Crystal Sky Pictures, Intrepid Pictures, Rogue Pictures
Distribuzione (Italia) Medusa Film
Fotografia Sam McCurdy
Montaggio Neil Marshall, Andrew MacRitchie
Effetti speciali Kevin Adcock, Vesna Giordano
Musiche Tyler Bates
Scenografia Simon Bowles




   Malcolm McDowell: Kane
   Rhona Mitra: Eden Sinclair
   Bob Hoskins: Bill Nelson
   Alexander Siddig: PM John Hatcher
   David O'Hara: Michael Canaris
   Sean Pertwee: Dr. Talbot
   Nora-Jane Noone: Caporale Read
   Adrian Lester: Sergente Norton
   Rick Warden: Chandler
   Langley Kirkwood: Tenente Bryant
   Leslie Simpson: Carpenter
   Chris Robson: Steve Miller
   Jeremy Crutchley: Richter
   Stephen Hughes: Soldato Johnson
   Ashley McFarlane: Contadino
   Jon Falkow: Capitano Hendrix
   Jason Cope: Wall Sentry
   Craig Conway: Sol
   Lee-Anne Liebenberg: Viper




In Scozia si accende il focolaio di un virus denominato "Il Mietitore" (Reaper) che decima la popolazione, attraversando poi tutto il Regno Unito. Poiché sembra non esserci né una cura né un vaccino, la Scozia viene isolata dal resto del mondo attraverso muri, sistemi AA lungo la vecchia via del Vallo di Adriano e con minamento dei mari, per paura di una pandemia fatale per l'umanità; ma per quest'azione il mondo volta le spalle alla Gran Bretagna dando il via ad una crisi economica perdurante....................



A futuristic action thriller where a team of people work to prevent a disaster threatening the future of the human race.








[spoiler]
General
Unique ID                                : 209990033010853853146022254961063319812 (0x9DFA9BF8740C97B3FB3AB5A1EFD35904)
Complete name                            : Doomsday - Il giorno del giudizio (200.H264.ita.eng.iCV-MIRCrew.mkv
Format                                   : Matroska
Format version                           : Version 2
File size                                : 1.73 GiB
Duration                                 : 1h 52mn
Overall bit rate                         : 2 189 Kbps
Movie name                               : icv-crew
Encoded date                             : UTC 2017-09-04 10:15:14
Writing application                      : Lavf54.63.100
Writing library                          : Lavf54.63.100
COPYRIGHT                                : robbyrs
DATE                                     : 2017

Video
ID                                       : 1
Format                                   : AVC
Format/Info                              : Advanced Video Codec
Format profile                           : [email protected]
Format settings, CABAC                   : Yes
Format settings, ReFrames                : 2 frames
Codec ID                                 : V_MPEG4/ISO/AVC
Duration                                 : 1h 52mn
Bit rate                                 : 1 300 Kbps
Width                                    : 720 pixels
Height                                   : 304 pixels
Display aspect ratio                     : 2.35:1
Original display aspect ratio            : 2.35:1
Frame rate mode                          : Variable
Frame rate                               : 23.976 fps
Color space                              : YUV
Chroma subsampling                       : 4:2:0
Bit depth                                : 8 bits
Scan type                                : Progressive
Bits/(Pixel*Frame)                       : 0.248
Stream size                              : 1 008 MiB (57%)
Writing library                          : x264 core 130 r2273
Encoding settings                        : cabac=1 / ref=2 / deblock=1:0:0 / analyse=0x1:0x131 / me=hex / subme=7 / psy=1 / psy_rd=1.00:0.00 / mixed_ref=0 / me_range=16 / chroma_me=1 / trellis=1 / 8x8dct=0 / cqm=0 / deadzone=21,11 / fast_pskip=1 / chroma_qp_offset=-2 / threads=12 / lookahead_threads=2 / sliced_threads=0 / nr=0 / decimate=1 / interlaced=0 / bluray_compat=0 / constrained_intra=0 / bframes=3 / b_pyramid=0 / b_adapt=1 / b_bias=0 / direct=3 / weightb=1 / open_gop=0 / weightp=2 / keyint=230 / keyint_min=23 / scenecut=40 / intra_refresh=0 / rc_lookahead=40 / rc=abr / mbtree=1 / bitrate=1300 / ratetol=1.0 / qcomp=0.60 / qpmin=10 / qpmax=69 / qpstep=4 / vbv_maxrate=24000 / vbv_bufsize=24000 / nal_hrd=none / ip_ratio=1.40 / aq=1:1.00
Language                                 : Italian
Default                                  : Yes
Forced                                   : No

Audio #1
ID                                       : 2
Format                                   : AC-3
Format/Info                              : Audio Coding 3
Mode extension                           : CM (complete main)
Codec ID                                 : A_AC3
Duration                                 : 1h 52mn
Bit rate mode                            : Constant
Bit rate                                 : 448 Kbps
Channel(s)                               : 6 channels
Channel positions                        : Front: L C R, Side: L R, LFE
Sampling rate                            : 48.0 KHz
Bit depth                                : 16 bits
Compression mode                         : Lossy
Delay relative to video                  : 1mn 5s
Stream size                              : 362 MiB (20%)
Language                                 : Italian
Default                                  : Yes
Forced                                   : No

Audio #2
ID                                       : 3
Format                                   : AC-3
Format/Info                              : Audio Coding 3
Mode extension                           : CM (complete main)
Codec ID                                 : A_AC3
Duration                                 : 1h 52mn
Bit rate mode                            : Constant
Bit rate                                 : 448 Kbps
Channel(s)                               : 6 channels
Channel positions                        : Front: L C R, Side: L R, LFE
Sampling rate                            : 48.0 KHz
Bit depth                                : 16 bits
Compression mode                         : Lossy
Delay relative to video                  : 1mn 5s
Stream size                              : 362 MiB (20%)
Language                                 : English
Default                                  : No
Forced                                   : No


[/spoiler]

[/center]

Info: Per scaricare devi usare un client come uTorrent o Transmission
AnnounceURL
udp://tracker.coppersurfer.tk:6969/announce
Hash c8ffdc74a3a54837c8b20c7ee9e6c375b48a1c14
Peers seeds: 55 , leech: 15
Size 1.73 GB
Completato 837x
Aggiunto 05.09.17 - 06:09:41
Uploader   robbyrs
Votazione (Voti: 1)


Condividi questo bittorrent:


html/blog:


bbcode/forum:




Aggiungi Commento


counter