* Dettagli Torrent   globale  | Commenti (0) 


- Codice Unlocked - Londra sotto attacco (2017).Italian.English.Ac3.5.1.sub.ita.eng.iCV-MIRCrew -


Download via torrent:
Categoria bittorrent BDRip
Descrizione
Unlocked - Codice Unlocked - Londra sotto attacco (2017).Italian.English.Ac3.5.1.sub.ita.eng.iCV-MIRCrew

[center]by www.icv-crew.org


NO FOUND ONLY ORIGINAL RELEASE



My release is always in double track audio italian and Original audio
for select it use VLC or dvd player home
not use wmp

Codice Unlocked - Londra sotto attacco - Unlocked (2017)







Titolo originale:   Unlocked
Conosciuto anche come:  
Nazione:   Regno Unito
Anno:   2017
Genere:   Azione, Thriller
Durata:   98'
Regia:   Michael Apted
Produzione:   Bloom, Czech Anglo Productions, Lipsync Productions, Silver Reel
Distribuzione:   Notorious Pictures
Data di uscita:   04 Maggio 2017 (cinema)



Noomi Rapace, Orlando Bloom, Toni Collette, Michael Douglas, John Malkovich, Akshay Kumar, Tosin Cole, Adelayo Adedayo, Brian Caspe, Aymen Hamdouchi



Alice, agente della CIA esperta nella conduzione di interrogatori, riesce ad ottenere da un giovane prigioniero membro di una cellula terroristica delle informazioni vitali su un prossimo attacco contro un obiettivo americano a Londra. ..............



A CIA interrogator is lured into a ruse that puts London at risk of a biological attack.








[spoiler]

General
Complete name                            : Codice Unlocked Londra sotto attacco (2017).Ita.Eng.sub.ita.eng-iCV-MIRCrew.avi
Format                                   : AVI
Format/Info                              : Audio Video Interleave
File size                                : 1.58 GiB
Duration                                 : 1h 38mn
Overall bit rate                         : 2 297 Kbps
Movie name                               : www.icv-crew.org
Recorded date                            : 2017
Writing application                      : VirtualDubMod 1.5.10.2 (build 2540/release)
Writing library                          : VirtualDubMod build 2540/release
Copyright                                : robbyrs

Video
ID                                       : 0
Format                                   : MPEG-4 Visual
Format profile                           : [email protected]
Format settings, BVOP                    : No
Format settings, QPel                    : No
Format settings, GMC                     : No warppoints
Format settings, Matrix                  : Default (H.263)
Codec ID                                 : XVID
Codec ID/Hint                            : XviD
Duration                                 : 1h 38mn
Bit rate                                 : 1 387 Kbps
Width                                    : 720 pixels
Height                                   : 304 pixels
Display aspect ratio                     : 2.40:1
Frame rate                               : 24.000 fps
Color space                              : YUV
Chroma subsampling                       : 4:2:0
Bit depth                                : 8 bits
Scan type                                : Progressive
Compression mode                         : Lossy
Bits/(Pixel*Frame)                       : 0.264
Stream size                              : 976 MiB (60%)
Writing library                          : XviD 64

Audio #1
ID                                       : 1
Format                                   : AC-3
Format/Info                              : Audio Coding 3
Mode extension                           : CM (complete main)
Codec ID                                 : 2000
Duration                                 : 1h 38mn
Bit rate mode                            : Constant
Bit rate                                 : 448 Kbps
Channel(s)                               : 6 channels
Channel positions                        : Front: L C R, Side: L R, LFE
Sampling rate                            : 48.0 KHz
Bit depth                                : 16 bits
Compression mode                         : Lossy
Stream size                              : 315 MiB (20%)
Alignment                                : Split accross interleaves
Interleave, duration                     : 42 ms (1.00 video frame)
Interleave, preload duration             : 500 ms

Audio #2
ID                                       : 2
Format                                   : AC-3
Format/Info                              : Audio Coding 3
Mode extension                           : CM (complete main)
Codec ID                                 : 2000
Duration                                 : 1h 38mn
Bit rate mode                            : Constant
Bit rate                                 : 448 Kbps
Channel(s)                               : 6 channels
Channel positions                        : Front: L C R, Side: L R, LFE
Sampling rate                            : 48.0 KHz
Bit depth                                : 16 bits
Compression mode                         : Lossy
Stream size                              : 315 MiB (20%)
Alignment                                : Split accross interleaves
Interleave, duration                     : 42 ms (1.00 video frame)
Interleave, preload duration             : 500 ms



[/spoiler]

[/center]

Info: Per scaricare devi usare un client come uTorrent o Transmission
AnnounceURL
udp://tracker.coppersurfer.tk:6969/announce
Hash 06cec06c62125acd7c9cbbe040c8df09c630b36e
Peers seeds: 191 , leech: 50
Size 1.58 GB
Completato 4753x
Aggiunto 04.09.17 - 14:09:32
Uploader   robbyrs
Votazione (Voti: 1)


Condividi questo bittorrent:


html/blog:


bbcode/forum:




Aggiungi Commento


counter