* Dettagli Torrent   globale  | Commenti (0) 


- Arrietty - Il mondo segreto sotto il pavimento (2010).H264.Italian.Jpn.Ac3.5.1.sub.ita.iCV-MIRCrew -


Download via torrent:
Categoria bittorrent Anime
Descrizione
Arrietty - Il mondo segreto sotto il pavimento (2010).H264.Italian.Jpn.Ac3.5.1.sub.ita.iCV-MIRCrew


[center]by www.icv-crew.org


NO FOUND ONLY ORIGINAL RELEASE



My release is always in double track audio italian and Original audio
for select it use VLC or dvd player home
not use wmp

Arrietty - Il mondo segreto sotto il pavimento (2010)







Titolo originale ????????????
Lingua originale Giapponese
Paese di produzione Giappone
Anno 2010
Durata 94 min
Rapporto 1,85:1
Genere animazione, fantastico
Regia Hiromasa Yonebayashi
Sceneggiatura Hayao Miyazaki
Produttore Toshio Suzuki
Produttore esecutivo Hayao Miyazaki
Casa di produzione Studio Ghibli
Distribuzione (Italia) Lucky Red
Musiche Cécile Corbel
Storyboard Hiromasa Yonebayashi
Art director

   Noboru Yoshida
   Youji Takeshige

Animatori

   Akihiko Yamashita
   Megumi Kagawa



Doppiatori originali

   Mirai Shida: Arrietty
   Ryunosuke Kamiki: Sh?
   Keiko Takeshita: Sadako
   Kirin Kiki: Haru
   Shinobu ?take: Homily
   Tomokazu Miura: Pod
   Tatsuya Fujiwara: Spiller

Doppiatori italiani

   Giulia Tarquini: Arrietty
   Manuel Meli: Sh?
   Aurora Cancian: Sadako
   Doriana Chierici: Haru
   Barbara De Bortoli: Homily
   Luca Biagini: Pod
   Alessandro Campaiola Ward: Spiller




La storia è ambientata a Koganei, una città alla periferia ovest di Tokyo e si svolge nel 2010.

Arrietty ha quasi 14 anni ma non è una ragazzina normale. È infatti un esserino alto non più di dieci centimetri e appartiene alla razza dei prendimprestito; vive con la sua famiglia, composta da sua madre Homily e dal padre Pod, sotto il pavimento di una grande casa di campagna, dove i "grandi" umani sono inconsapevoli della loro presenza



The Clock family are four-inch-tall people who live anonymously in another family's residence, borrowing simple items to make their home. Life changes for the Clocks when their daughter, Arrietty, is discovered.











[spoiler]
General
Unique ID                                : 258101988614879219512668913563435852253 (0xC22CA2860C9A5E249928280CFFE8E1DD)
Complete name                            : Arrietty - Il mondo segreto sotto il pavimento (2010).H264.ita.Jpn.sub.ita.iCV-MIRCrew.mkv
Format                                   : Matroska
Format version                           : Version 2
File size                                : 1.46 GiB
Duration                                 : 1h 34mn
Overall bit rate                         : 2 227 Kbps
Movie name                               : www.icv-crew.org
Encoded date                             : UTC 2017-08-28 12:03:45
Writing application                      : Lavf54.63.100
Writing library                          : Lavf54.63.100
ALBUM                                    : Progetto Anime
COPYRIGHT                                : robbyrs
DATE                                     : 2017

Video
ID                                       : 1
Format                                   : AVC
Format/Info                              : Advanced Video Codec
Format profile                           : [email protected]
Format settings, CABAC                   : Yes
Format settings, ReFrames                : 2 frames
Codec ID                                 : V_MPEG4/ISO/AVC
Duration                                 : 1h 34mn
Bit rate                                 : 1 290 Kbps
Width                                    : 720 pixels
Height                                   : 384 pixels
Display aspect ratio                     : 16:9
Frame rate mode                          : Variable
Frame rate                               : 24.000 fps
Color space                              : YUV
Chroma subsampling                       : 4:2:0
Bit depth                                : 8 bits
Scan type                                : Progressive
Bits/(Pixel*Frame)                       : 0.194
Stream size                              : 865 MiB (58%)
Title                                    : TbZ
Writing library                          : x264 core 130 r2273
Encoding settings                        : cabac=1 / ref=2 / deblock=1:0:0 / analyse=0x1:0x131 / me=hex / subme=7 / psy=1 / psy_rd=1.00:0.00 / mixed_ref=0 / me_range=16 / chroma_me=1 / trellis=1 / 8x8dct=0 / cqm=0 / deadzone=21,11 / fast_pskip=1 / chroma_qp_offset=-2 / threads=12 / lookahead_threads=2 / sliced_threads=0 / nr=0 / decimate=1 / interlaced=0 / bluray_compat=0 / constrained_intra=0 / bframes=3 / b_pyramid=0 / b_adapt=1 / b_bias=0 / direct=3 / weightb=1 / open_gop=0 / weightp=2 / keyint=240 / keyint_min=24 / scenecut=40 / intra_refresh=0 / rc_lookahead=40 / rc=abr / mbtree=1 / bitrate=1290 / ratetol=1.0 / qcomp=0.60 / qpmin=10 / qpmax=69 / qpstep=4 / vbv_maxrate=24000 / vbv_bufsize=24000 / nal_hrd=none / ip_ratio=1.40 / aq=1:1.00
Language                                 : Italian
Default                                  : Yes
Forced                                   : No

Audio #1
ID                                       : 2
Format                                   : AC-3
Format/Info                              : Audio Coding 3
Mode extension                           : CM (complete main)
Codec ID                                 : A_AC3
Duration                                 : 1h 34mn
Bit rate mode                            : Constant
Bit rate                                 : 448 Kbps
Channel(s)                               : 6 channels
Channel positions                        : Front: L C R, Side: L R, LFE
Sampling rate                            : 48.0 KHz
Bit depth                                : 16 bits
Compression mode                         : Lossy
Delay relative to video                  : 1mn 5s
Stream size                              : 301 MiB (20%)
Language                                 : Italian
Default                                  : Yes
Forced                                   : No

Audio #2
ID                                       : 3
Format                                   : AC-3
Format/Info                              : Audio Coding 3
Mode extension                           : CM (complete main)
Codec ID                                 : A_AC3
Duration                                 : 1h 34mn
Bit rate mode                            : Constant
Bit rate                                 : 448 Kbps
Channel(s)                               : 6 channels
Channel positions                        : Front: L C R, Side: L R, LFE
Sampling rate                            : 48.0 KHz
Bit depth                                : 16 bits
Compression mode                         : Lossy
Delay relative to video                  : 1mn 5s
Stream size                              : 301 MiB (20%)
Language                                 : Japanese
Default                                  : No
Forced                                   : No

Text #1
ID                                       : 4
Format                                   : VobSub
Codec ID                                 : S_VOBSUB
Codec ID/Info                            : The same subtitle format used on DVDs
Language                                 : Italian
Default                                  : No
Forced                                   : No

Text #2
ID                                       : 5
Format                                   : VobSub
Codec ID                                 : S_VOBSUB
Codec ID/Info                            : The same subtitle format used on DVDs
Language                                 : Italian
Default                                  : No
Forced                                   : No

Text #3
ID                                       : 6
Format                                   : VobSub
Codec ID                                 : S_VOBSUB
Codec ID/Info                            : The same subtitle format used on DVDs
Language                                 : Italian
Default                                  : No
Forced                                   : No

Menu
00:00:00.000                             : :00:00:00.000
00:08:14.000                             : :00:08:14.000
00:22:21.417                             : :00:22:21.417
00:26:13.833                             : :00:26:13.833
00:30:29.208                             : :00:30:29.208
00:36:19.000                             : :00:36:19.000
00:45:09.000                             : :00:45:09.000
00:53:16.833                             : :00:53:16.833
01:06:34.625                             : :01:06:34.625
01:08:44.208                             : :01:08:44.208
01:17:10.417                             : :01:17:10.417
01:30:32.208                             : :01:30:32.208



[/spoiler]

[/center]

Info: Per scaricare devi usare un client come uTorrent o Transmission
AnnounceURL
udp://tracker.coppersurfer.tk:6969/announce
Hash 7e15036fd2a64f0dda6b14e5c3f236fc52e2b459
Peers seeds: 7 , leech: 4
Size 1.47 GB
Completato 146x
Aggiunto 04.09.17 - 10:09:01
Uploader   robbyrs
Votazione (Voti: 0)


Condividi questo bittorrent:


html/blog:


bbcode/forum:




Aggiungi Commento


counter