* Dettagli Torrent   globale  | Commenti (0) 


- Narcos.S03.ITA.ENG.FRE.GER.SPA.1080p.NF.WEB-DLMux.DD5.1.x264 -


Download via torrent:
Categoria bittorrent SerieTv
Descrizione
Narcos



.: Scheda della serie :.

Anno: 2015
Genere: Crime, Drama
Regia: Chris Brancato, Carlo Bernard e Doug Miro

Cast: Pedro Pascal, Boyd Holbrook, Arturo Castro ...

.: Trama :.
[/align]

La serie, scritta da Chris Brancato e diretta da Jose Padilha, segue l'ascesa del Cartello di Medellín e del suo leader, Pablo Escobar, nel mondo della droga e il tentativo da parte della DEA di contrastarlo. A guidarci è la voce narrante di Steve Murphy (Boyd Holbrook), agente delle DEA di Miami, che viene inviato in Colombia insieme al suo collega Javier Peña (Pedro Pascal) con l'obiettivo di fermare quello che in pochi anni era diventato il Re della Cocaina, Pablo Escobar (Wagner Moura). La serie, fin dal pilot, spazia abilmente tra gli anni '70 e '80, tra Miami e la Colombia, dando allo spettatore uno spaccato vivido e drammatico di un'epoca e di un signore della droga capace di affermarsi in tutto il mondo a colpi di "soldi o morte", oltre che di tutto l'insieme di connivenze e debolezze politiche e istituzionali che hanno accompagnato l'affermarsi del Cartello di Medellín

[align=center].: ScreenShot :.

[spoiler][/spoiler]

.: Scheda tecnica :.[spoiler]

Format                      : Matroska
Format version              : Version 4 / Version 2
File size                   : 2.76 GiB
Duration                    : 54 min 35 s
Overall bit rate mode       : Variable
Overall bit rate            : 7 246 kb/s
Movie name                  : Narcos - S03E01 - La strategia del capo [The Kingpin Strategy] - WEB-RIP 1080p di TheJohnCena [T7ST]
Encoded date                : UTC 2017-09-01 16:57:18
Writing application         : mkvmerge v15.0.0 ('Duel with the Devil') 64-bit
Writing library             : libebml v1.3.5 + libmatroska v1.4.5
Cover                       : Yes
Attachments                 : Cover Art

Video
ID                          : 1
Format                      : AVC
Format/Info                 : Advanced Video Codec
Format profile              : [email protected]
Format settings, CABAC      : Yes
Format settings, ReFrames   : 3 frames
Codec ID                    : V_MPEG4/ISO/AVC
Duration                    : 54 min 35 s
Bit rate mode               : Variable
Bit rate                    : 5 360 kb/s
Maximum bit rate            : 8 040 kb/s
Width                       : 1 920 pixels
Height                      : 1 080 pixels
Display aspect ratio        : 16:9
Frame rate mode             : Constant
Frame rate                  : 23.976 (24000/1001) FPS
Color space                 : YUV
Chroma subsampling          : 4:2:0
Bit depth                   : 8 bits
Scan type                   : Progressive
Bits/(Pixel*Frame)          : 0.108
Stream size                 : 2.03 GiB (73%)
Title                       : Narcos - S03E01 - La strategia del capo [The Kingpin Strategy] - WEB-RIP 1080p di TheJohnCena [T7ST]
Writing library             : x264 core 118
Encoding settings           : cabac=1 / ref=3 / deblock=1:0:0 / analyse=0x1:0x111 / me=umh / subme=10 / psy=1 / psy_rd=1.00:0.00 / mixed_ref=1 / me_range=24 / chroma_me=1 / trellis=2 / 8x8dct=0 / cqm=0 / deadzone=21,11 / fast_pskip=1 / chroma_qp_offset=-2 / threads=6 / sliced_threads=0 / nr=0 / decimate=1 / interlaced=0 / bluray_compat=0 / constrained_intra=0 / bframes=2 / b_pyramid=0 / b_adapt=2 / b_bias=0 / direct=3 / weightb=1 / open_gop=0 / weightp=2 / keyint=48 / keyint_min=25 / scenecut=0 / intra_refresh=0 / rc_lookahead=0 / rc=2pass / mbtree=1 / bitrate=5360 / ratetol=1.0 / qcomp=0.50 / qpmin=6 / qpmax=51 / qpstep=4 / cplxblur=20.0 / qblur=0.5 / vbv_maxrate=8040 / vbv_bufsize=10720 / nal_hrd=vbr / ip_ratio=1.40 / aq=1:1.00
Default                     : Yes
Forced                      : No

Audio #1
ID                          : 2
Format                      : AC-3
Format/Info                 : Audio Coding 3
Format settings, Endianness : Big
Codec ID                    : A_AC3
Duration                    : 54 min 35 s
Bit rate mode               : Constant
Bit rate                    : 384 kb/s
Channel(s)                  : 6 channels
Channel positions           : Front: L C R, Side: L R, LFE
Sampling rate               : 48.0 kHz
Frame rate                  : 31.250 FPS (1536 spf)
Bit depth                   : 16 bits
Compression mode            : Lossy
Stream size                 : 150 MiB (5%)
Language                    : Italian
Service kind                : Complete Main
Default                     : Yes
Forced                      : No

Audio #2
ID                          : 3
Format                      : AC-3
Format/Info                 : Audio Coding 3
Format settings, Endianness : Big
Codec ID                    : A_AC3
Duration                    : 54 min 35 s
Bit rate mode               : Constant
Bit rate                    : 384 kb/s
Channel(s)                  : 6 channels
Channel positions           : Front: L C R, Side: L R, LFE
Sampling rate               : 48.0 kHz
Frame rate                  : 31.250 FPS (1536 spf)
Bit depth                   : 16 bits
Compression mode            : Lossy
Stream size                 : 150 MiB (5%)
Language                    : English
Service kind                : Complete Main
Default                     : No
Forced                      : No

Audio #3
ID                          : 4
Format                      : AC-3
Format/Info                 : Audio Coding 3
Format settings, Endianness : Big
Codec ID                    : A_AC3
Duration                    : 54 min 35 s
Bit rate mode               : Constant
Bit rate                    : 384 kb/s
Channel(s)                  : 6 channels
Channel positions           : Front: L C R, Side: L R, LFE
Sampling rate               : 48.0 kHz
Frame rate                  : 31.250 FPS (1536 spf)
Bit depth                   : 16 bits
Compression mode            : Lossy
Stream size                 : 150 MiB (5%)
Language                    : French
Service kind                : Complete Main
Default                     : No
Forced                      : No

Audio #4
ID                          : 5
Format                      : AC-3
Format/Info                 : Audio Coding 3
Format settings, Endianness : Big
Codec ID                    : A_AC3
Duration                    : 54 min 35 s
Bit rate mode               : Constant
Bit rate                    : 384 kb/s
Channel(s)                  : 6 channels
Channel positions           : Front: L C R, Side: L R, LFE
Sampling rate               : 48.0 kHz
Frame rate                  : 31.250 FPS (1536 spf)
Bit depth                   : 16 bits
Compression mode            : Lossy
Stream size                 : 150 MiB (5%)
Language                    : German
Service kind                : Complete Main
Default                     : No
Forced                      : No

Audio #5
ID                          : 6
Format                      : AC-3
Format/Info                 : Audio Coding 3
Format settings, Endianness : Big
Codec ID                    : A_AC3
Duration                    : 54 min 35 s
Bit rate mode               : Constant
Bit rate                    : 384 kb/s
Channel(s)                  : 6 channels
Channel positions           : Front: L C R, Side: L R, LFE
Sampling rate               : 48.0 kHz
Frame rate                  : 31.250 FPS (1536 spf)
Bit depth                   : 16 bits
Compression mode            : Lossy
Stream size                 : 150 MiB (5%)
Language                    : Spanish
Service kind                : Complete Main
Default                     : No
Forced                      : No

Text #1
ID                          : 7
Format                      : UTF-8
Codec ID                    : S_TEXT/UTF8
Codec ID/Info               : UTF-8 Plain Text
Duration                    : 53 min 26 s
Bit rate                    : 28 b/s
Count of elements           : 361
Stream size                 : 11.3 KiB (0%)
Title                       : Forced
Language                    : Italian
Default                     : Yes
Forced                      : Yes

Text #2
ID                          : 8
Format                      : UTF-8
Codec ID                    : S_TEXT/UTF8
Codec ID/Info               : UTF-8 Plain Text
Duration                    : 53 min 26 s
Bit rate                    : 55 b/s
Count of elements           : 631
Stream size                 : 21.5 KiB (0%)
Language                    : Italian
Default                     : No
Forced                      : No

Text #3
ID                          : 9
Format                      : UTF-8
Codec ID                    : S_TEXT/UTF8
Codec ID/Info               : UTF-8 Plain Text
Duration                    : 51 min 24 s
Bit rate                    : 30 b/s
Count of elements           : 353
Stream size                 : 11.3 KiB (0%)
Title                       : Forced
Language                    : English
Default                     : No
Forced                      : Yes

Text #4
ID                          : 10
Format                      : UTF-8
Codec ID                    : S_TEXT/UTF8
Codec ID/Info               : UTF-8 Plain Text
Duration                    : 52 min 59 s
Bit rate                    : 60 b/s
Count of elements           : 683
Stream size                 : 23.7 KiB (0%)
Language                    : English
Default                     : No
Forced                      : No

Text #5
ID                          : 11
Format                      : UTF-8
Codec ID                    : S_TEXT/UTF8
Codec ID/Info               : UTF-8 Plain Text
Duration                    : 53 min 26 s
Bit rate                    : 27 b/s
Count of elements           : 335
Stream size                 : 10.6 KiB (0%)
Title                       : Forced
Language                    : French
Default                     : No
Forced                      : Yes

Text #6
ID                          : 12
Format                      : UTF-8
Codec ID                    : S_TEXT/UTF8
Codec ID/Info               : UTF-8 Plain Text
Duration                    : 53 min 26 s
Bit rate                    : 52 b/s
Count of elements           : 594
Stream size                 : 20.4 KiB (0%)
Language                    : French
Default                     : No
Forced                      : No

Text #7
ID                          : 13
Format                      : UTF-8
Codec ID                    : S_TEXT/UTF8
Codec ID/Info               : UTF-8 Plain Text
Duration                    : 53 min 26 s
Bit rate                    : 29 b/s
Count of elements           : 374
Stream size                 : 11.4 KiB (0%)
Title                       : Forced
Language                    : German
Default                     : No
Forced                      : Yes

Text #8
ID                          : 14
Format                      : UTF-8
Codec ID                    : S_TEXT/UTF8
Codec ID/Info               : UTF-8 Plain Text
Duration                    : 53 min 26 s
Bit rate                    : 55 b/s
Count of elements           : 652
Stream size                 : 21.5 KiB (0%)
Language                    : German
Default                     : No
Forced                      : No

[/spoiler]

.: Note :.

Orario di seed e Banda disponibile:
Seedbox 1Gbps H24 fino a 15 completi o esaurimento disco

Webrip completo in ogni dettaglio e senza sbavature che permette di vedere la serie così come dovrebbe essere, in buona qualità e SENZA HARD SUB DI ALCUN GENERE. Sono presenti 5 tracce audio e 8 di sub (4 intere + 4 forced), il tutto a meno di 16 ore dal rilascio ufficiale :arpa:
[/align]
Pastebin PRO Summer Special!
Get 60% OFF on Pastebin PRO accounts!
create new paste  /  dealsnew!  /  api  /  trends  /  syntax languages  /  faq  /  tools  /  privacy  /  cookies  /  contact  /  dmca  /  scraping  /  go
Site design & logo © 2017 Pastebin; user contributions (pastes) licensed under cc by-sa 3.0 -- Dedicated Server Hosting by Steadfast
Top
Info: Per scaricare devi usare un client come uTorrent o Transmission
AnnounceURL
http://tracker.tntvillage.scambioetico.org:2710/announce
Hash 1870785596752a7ebd7dc1b240c9250402945833
Peers seeds: 142 , leech: 300
Size 28.94 GB
Completato 1473x
Aggiunto 03.09.17 - 04:09:55
Uploader   ppb1
Votazione (Voti: 0)


Condividi questo bittorrent:


html/blog:


bbcode/forum:




Aggiungi Commento


counter