* Dettagli Torrent   globale  | Commenti (0) 


- Hours (2013).H264.Italian.English.Ac3.5.1.sub.ita.iCV-MIRCrew -


Download via torrent:
Categoria bittorrent BDRip
Descrizione
Hours (2013).H264.Italian.English.Ac3.5.1.sub.ita.iCV-MIRCrew

[center]by www.icv-crew.org


NO FOUND ONLY ORIGINAL RELEASE



My release is always in double track audio italian and Original audio
for select it use VLC or dvd player home
not use wmp

Hours (2013)







Lingua originale inglese
Paese di produzione Stati Uniti d'America
Anno 2013
Durata 97 min
Rapporto 2,35:1
Genere thriller
Regia Eric Heisserer
Sceneggiatura Eric Heisserer
Produttore Peter Safran, Brandon Birtell, Kolie Wegner, Scott Willmann, Ann C. Salzer
Produttore esecutivo Dan Clifton, Kevin Scott Frakes, Ken Hirsh, Peggy Taylor
Casa di produzione The Safran Company, PalmStar Entertainment
Fotografia Jaron Presant
Montaggio Sam Bauer
Musiche Benjamin Wallfisch
Scenografia William A. Elliott
Costumi Claire Breaux
Trucco Nikki I Brown, Denise Pugh-Ruiz, LaToya Henderson




   Paul Walker: Nolan
   Génesis Rodríguez: Abigail
   Nick Gomez: Lobo
   Christopher Matthew Cook: Lenny
   Judd Lormand: Glenn
   Renell Gibbs: Carl
   Lena Clark: Lucy
   TJ Hassan: Jeremy
   Oscar Gale: Hector
   Tony Bentley: dottore
   Kerry Cahill: infermiera Shelly
   Michelle Torres: vittima dell'uragano Katrina




Poco prima dell'alba del 29 agosto 2005, Nolan e sua moglie incinta Abigail raggiungono l'ospedale di New Orleans, per far nascere la loro figlia prematura. Quello che dovrebbe essere il giorno più bello della loro vita cambia però in modo tragico: l'uragano Katrina distrugge l'ospedale dove si trovano, che deve quindi essere immediatamente evacuato................



In New Orleans just before Hurricane Katrina hits, a pregnant woman gives birth prematurely. She dies and her baby is in critical condition. The baby has to be kept in a neonatal incubator. When the hurricane strikes, all the power goes out and everyone in the hospital leaves. But the baby's father stays because the baby can't be moved so he has to take care of his baby by making sure the ventilator stays on.  











[spoiler]
General
Unique ID                                : 257273342861801645380108908391547319401 (0xC18D0B223A2631EF47D60DD9D1CCB469)
Complete name                            : Hours (2013).H264.ita.eng.sub.ita.iCV-MIRCrew\Hours (2013).H264.ita.eng.sub.ita.iCV-MIRCrew.mkv
Format                                   : Matroska
Format version                           : Version 2
File size                                : 1.39 GiB
Duration                                 : 1h 37mn
Overall bit rate                         : 2 048 Kbps
Movie name                               : icv-crew
Encoded date                             : UTC 2017-08-28 16:11:56
Writing application                      : Lavf54.63.100
Writing library                          : Lavf54.63.100
COPYRIGHT                                : robbyrs
DATE                                     : 2017

Video
ID                                       : 1
Format                                   : AVC
Format/Info                              : Advanced Video Codec
Format profile                           : [email protected]
Format settings, CABAC                   : Yes
Format settings, ReFrames                : 2 frames
Codec ID                                 : V_MPEG4/ISO/AVC
Duration                                 : 1h 37mn
Bit rate                                 : 1 290 Kbps
Width                                    : 720 pixels
Height                                   : 304 pixels
Display aspect ratio                     : 2.40:1
Frame rate mode                          : Variable
Frame rate                               : 23.976 fps
Color space                              : YUV
Chroma subsampling                       : 4:2:0
Bit depth                                : 8 bits
Scan type                                : Progressive
Bits/(Pixel*Frame)                       : 0.246
Stream size                              : 863 MiB (61%)
Writing library                          : x264 core 130 r2273
Encoding settings                        : cabac=1 / ref=2 / deblock=1:0:0 / analyse=0x1:0x131 / me=hex / subme=7 / psy=1 / psy_rd=1.00:0.00 / mixed_ref=0 / me_range=16 / chroma_me=1 / trellis=1 / 8x8dct=0 / cqm=0 / deadzone=21,11 / fast_pskip=1 / chroma_qp_offset=-2 / threads=12 / lookahead_threads=2 / sliced_threads=0 / nr=0 / decimate=1 / interlaced=0 / bluray_compat=0 / constrained_intra=0 / bframes=3 / b_pyramid=0 / b_adapt=1 / b_bias=0 / direct=3 / weightb=1 / open_gop=0 / weightp=2 / keyint=230 / keyint_min=23 / scenecut=40 / intra_refresh=0 / rc_lookahead=40 / rc=abr / mbtree=1 / bitrate=1290 / ratetol=1.0 / qcomp=0.60 / qpmin=10 / qpmax=69 / qpstep=4 / vbv_maxrate=24000 / vbv_bufsize=24000 / nal_hrd=none / ip_ratio=1.40 / aq=1:1.00
Language                                 : Italian
Default                                  : Yes
Forced                                   : No

Audio #1
ID                                       : 2
Format                                   : AC-3
Format/Info                              : Audio Coding 3
Mode extension                           : CM (complete main)
Codec ID                                 : A_AC3
Duration                                 : 1h 37mn
Bit rate mode                            : Constant
Bit rate                                 : 384 Kbps
Channel(s)                               : 6 channels
Channel positions                        : Front: L C R, Side: L R, LFE
Sampling rate                            : 48.0 KHz
Bit depth                                : 16 bits
Compression mode                         : Lossy
Delay relative to video                  : 1mn 5s
Stream size                              : 267 MiB (19%)
Language                                 : Italian
Default                                  : Yes
Forced                                   : No

Audio #2
ID                                       : 3
Format                                   : AC-3
Format/Info                              : Audio Coding 3
Mode extension                           : CM (complete main)
Codec ID                                 : A_AC3
Duration                                 : 1h 37mn
Bit rate mode                            : Constant
Bit rate                                 : 384 Kbps
Channel(s)                               : 6 channels
Channel positions                        : Front: L C R, Side: L R, LFE
Sampling rate                            : 48.0 KHz
Bit depth                                : 16 bits
Compression mode                         : Lossy
Delay relative to video                  : 1mn 5s
Stream size                              : 267 MiB (19%)
Language                                 : English
Default                                  : No
Forced                                   : No

Text #1
ID                                       : 4
Format                                   : ASS
Codec ID                                 : S_TEXT/ASS
Codec ID/Info                            : Advanced Sub Station Alpha
Compression mode                         : Lossless
Title                                    : FORCED
Language                                 : Italian
Default                                  : Yes
Forced                                   : No

Text #2
ID                                       : 5
Format                                   : ASS
Codec ID                                 : S_TEXT/ASS
Codec ID/Info                            : Advanced Sub Station Alpha
Compression mode                         : Lossless
Language                                 : Italian
Default                                  : No
Forced                                   : No

Menu
00:00:00.000                             : :00:00:00.000
00:04:29.852                             : :00:04:29.852
00:15:11.493                             : :00:15:11.493
00:27:51.753                             : :00:27:51.753
00:38:19.880                             : :00:38:19.880
00:43:49.209                             : :00:43:49.209
00:54:28.348                             : :00:54:28.348
00:59:14.634                             : :00:59:14.634
01:07:46.645                             : :01:07:46.645
01:20:16.394                             : :01:20:16.394
01:28:14.372                             : :01:28:14.372
01:32:53.150                             : :01:32:53.150



[/spoiler]

[/center]

Info: Per scaricare devi usare un client come uTorrent o Transmission
AnnounceURL
udp://tracker.coppersurfer.tk:6969/announce
Hash aa14945c37606631c9135b2a4a41f5b918eec5e3
Peers seeds: 39 , leech: 4
Size 1.39 GB
Completato 941x
Aggiunto 02.09.17 - 04:09:30
Uploader   robbyrs
Votazione (Voti: 1)


Condividi questo bittorrent:


html/blog:


bbcode/forum:




Aggiungi Commento


counter