* Dettagli Torrent   globale  | Commenti (0) 


- Disjointed.S01.ITA.ENG.1080p.NF.WEB-DLMux.DD5.1.x264-Morpheus -


Download via torrent:
Categoria bittorrent SerieTv
Descrizione
[center]

GIUSEPPEiCV & LITTLELINX
HANNO IL PIACERE DI PRESENTARE


Disjointed
Stagione 1
WEBMux 1080p

Dual Language: ITA - ENG
Multisub
Trovi tutte le nostre release su
IL CORSARO VERDE
www.icv-crew.org



.: Dati Serie :.


Nazione: Stati Uniti d'America
Anno: 2017
Genere: sitcom
Stagione 1
Episodi: 10
Durata: 30 min circa
Lingua: ITA - ENG
Cast:
• Kathy Bates: Ruth Whitefeather Feldman
• Elizabeth Ho: Jenny
• Tone Bell: Carter
• Chris Redd: Dank
• Elizabeth Alderfer: Olivia
• Dougie Baldwin: Pete
• Aaron Moten: Travis

Cannabis legend Ruth Whitefeather Feldman employs her newly graduated son and a team of young "budtenders" to help run her Los Angeles marijuana dispensary.

Dopo essere stata un avvocato per tutta la vita, Ruth, un'attivista per la legalizzazione della marijuana, ha deciso di lasciarsi alle spalle quella parte di sé e realizzare finalmente il suo sogno aprendo un dispensario di cannabis a Los Angeles. Con lei in negozio lavorano il figlio ventenne, Travis; una guardia privata con grossi problemi, Carter; e i commessi Pete, Olivia e Jenny; tutti più o meno costantemente fumati.

CURIOSITÀ:
Disjointed di Netflix è co-ideata da Chuck Lorre, noto come uno dei creatori delle sitcom di straordinario successo Due uomini e mezzo, Mom e The Big Bang Theory. La serie riunisce quest'ultimo con la protagonista Kathy Bates, apparsa in un episodio di Due uomini e mezzo, vincendo per la sua interpretazione il suo primo Emmy dopo undici nomination.
Il ruolo di Jenny, uno dei dipendenti di Ruth, era stato affidato inizialmente a Jessica Lu, poi sostituita da Elizabeth Ho.

[center].: Screenshot :.








.: Caratteristiche Tecniche :.[/center]
[spoiler]
Disjointed.1x01.La.Varieta.Omega.ITA.ENG.1080p.NF.WEB-DLMux.DD5.1.x264-Morpheus.mkv
Format                                   : Matroska
Format version                           : Version 4 / Version 2
File size                                : 1.58 GiB
Duration                                 : 27mn 36s
Overall bit rate mode                    : Variable
Overall bit rate                         : 8 172 Kbps
Encoded date                             : UTC 2017-08-27 15:48:39
Writing application                      : mkvmerge v7.6.0 ('Garden of Dreams') 64bit built on Feb  8 2015 15:12:28
Writing library                          : libebml v1.3.1 + libmatroska v1.4.2
_STATISTICS_WRITING_APP                  : mkvmerge v7.6.0 ('Garden of Dreams') 64bit built on Feb  8 2015 15:12:28
_STATISTICS_WRITING_DATE_UTC             : 2017-08-27 15:48:39
_STATISTICS_TAGS                         : BPS DURATION NUMBER_OF_FRAMES NUMBER_OF_BYTES
DURATION                                 : 00:27:36.256000000
NUMBER_OF_FRAMES                         : 51758
NUMBER_OF_BYTES                          : 79500288

Video
ID                                       : 1
Format                                   : AVC
Format/Info                              : Advanced Video Codec
Format profile                           : [email protected]
Format settings, CABAC                   : Yes
Format settings, ReFrames                : 3 frames
Codec ID                                 : V_MPEG4/ISO/AVC
Duration                                 : 27mn 36s
Bit rate mode                            : Variable
Bit rate                                 : 7 500 Kbps
Maximum bit rate                         : 11.2 Mbps
Width                                    : 1 920 pixels
Height                                   : 1 080 pixels
Display aspect ratio                     : 16:9
Frame rate                               : 23.976 fps
Color space                              : YUV
Chroma subsampling                       : 4:2:0
Bit depth                                : 8 bits
Scan type                                : Progressive
Bits/(Pixel*Frame)                       : 0.151
Stream size                              : 1.40 GiB (89%)
Writing library                          : x264 core 118
Encoding settings                        : cabac=1 / ref=3 / deblock=1:0:0 / analyse=0x1:0x111 / me=umh / subme=10 / psy=1 / psy_rd=1.00:0.00 / mixed_ref=1 / me_range=24 / chroma_me=1 / trellis=2 / 8x8dct=0 / cqm=0 / deadzone=21,11 / fast_pskip=1 / chroma_qp_offset=-2 / threads=8 / sliced_threads=0 / nr=0 / decimate=1 / interlaced=0 / bluray_compat=0 / constrained_intra=0 / bframes=2 / b_pyramid=0 / b_adapt=2 / b_bias=0 / direct=3 / weightb=1 / open_gop=0 / weightp=2 / keyint=48 / keyint_min=25 / scenecut=0 / intra_refresh=0 / rc_lookahead=0 / rc=2pass / mbtree=1 / bitrate=7500 / ratetol=1.0 / qcomp=0.50 / qpmin=6 / qpmax=51 / qpstep=4 / cplxblur=20.0 / qblur=0.5 / vbv_maxrate=11250 / vbv_bufsize=15000 / nal_hrd=vbr / ip_ratio=1.40 / aq=1:1.00
Default                                  : Yes
Forced                                   : No
_STATISTICS_WRITING_APP                  : mkvmerge v7.6.0 ('Garden of Dreams') 64bit built on Feb  8 2015 15:12:28
_STATISTICS_WRITING_DATE_UTC             : 2017-08-27 15:48:39
_STATISTICS_TAGS                         : BPS DURATION NUMBER_OF_FRAMES NUMBER_OF_BYTES
DURATION                                 : 00:27:36.224000000
NUMBER_OF_FRAMES                         : 51757
NUMBER_OF_BYTES                          : 79498752

Audio #1
ID                                       : 2
Format                                   : AC-3
Format/Info                              : Audio Coding 3
Mode extension                           : CM (complete main)
Codec ID                                 : A_AC3
Duration                                 : 27mn 36s
Bit rate mode                            : Constant
Bit rate                                 : 384 Kbps
Channel(s)                               : 6 channels
Channel positions                        : Front: L C R, Side: L R, LFE
Sampling rate                            : 48.0 KHz
Bit depth                                : 16 bits
Compression mode                         : Lossy
Stream size                              : 75.8 MiB (5%)
Title                                    : ITA
Language                                 : Italian
Default                                  : Yes
Forced                                   : Yes

Audio #2
ID                                       : 3
Format                                   : AC-3
Format/Info                              : Audio Coding 3
Mode extension                           : CM (complete main)
Codec ID                                 : A_AC3
Duration                                 : 27mn 36s
Bit rate mode                            : Constant
Bit rate                                 : 384 Kbps
Channel(s)                               : 6 channels
Channel positions                        : Front: L C R, Side: L R, LFE
Sampling rate                            : 48.0 KHz
Bit depth                                : 16 bits
Compression mode                         : Lossy
Stream size                              : 75.8 MiB (5%)
Title                                    : ENG
Language                                 : English
Default                                  : No
Forced                                   : No

Text #1
ID                                       : 4
Format                                   : UTF-8
Codec ID                                 : S_TEXT/UTF8
Codec ID/Info                            : UTF-8 Plain Text
Title                                    : ITA - Forced
Language                                 : Italian
Default                                  : Yes
Forced                                   : Yes

Text #2
ID                                       : 5
Format                                   : UTF-8
Codec ID                                 : S_TEXT/UTF8
Codec ID/Info                            : UTF-8 Plain Text
Title                                    : Italian
Language                                 : Italian
Default                                  : No
Forced                                   : No

Text #3
ID                                       : 6
Format                                   : UTF-8
Codec ID                                 : S_TEXT/UTF8
Codec ID/Info                            : UTF-8 Plain Text
Title                                    : ENG - Forced
Language                                 : English
Default                                  : No
Forced                                   : No

Text #4
ID                                       : 7
Format                                   : UTF-8
Codec ID                                 : S_TEXT/UTF8
Codec ID/Info                            : UTF-8 Plain Text
Title                                    : English
Language                                 : English
Default                                  : No
Forced                                   : No

Text #5
ID                                       : 8
Format                                   : UTF-8
Codec ID                                 : S_TEXT/UTF8
Codec ID/Info                            : UTF-8 Plain Text
Title                                    : Spanish
Language                                 : Spanish
Default                                  : No
Forced                                   : No

Text #6
ID                                       : 9
Format                                   : UTF-8
Codec ID                                 : S_TEXT/UTF8
Codec ID/Info                            : UTF-8 Plain Text
Title                                    : French
Language                                 : French
Default                                  : No
Forced                                   : No

Text #7
ID                                       : 10
Format                                   : UTF-8
Codec ID                                 : S_TEXT/UTF8
Codec ID/Info                            : UTF-8 Plain Text
Title                                    : German
Language                                 : German
Default                                  : No
Forced                                   : No


[/spoiler]

[center].: Ringraziamenti :.

TheJohnCena





RESTATE IN SEED ALTRIMENTI

[/center]

Info: Per scaricare devi usare un client come uTorrent o Transmission
AnnounceURL
http://tracker.tntvillage.scambioetico.org:2710/announce
Hash c336962b83a96a7dcc39430806078c0a02e46f3a
Peers seeds: 36 , leech: 30
Size 13.53 GB
Completato 265x
Aggiunto 30.08.17 - 15:08:47
Uploader   ppb1
Votazione (Voti: 0)


Condividi questo bittorrent:


html/blog:


bbcode/forum:




Aggiungi Commento


counter