* Dettagli Torrent   globale  | Commenti (0) 


- Masquerade (2012).Italian.Kor.Ac3.sub.ita.iCV-MIRCrew -


Download via torrent:
Categoria bittorrent BDRip
Descrizione
Masquerade (2012).Italian.Kor.Ac3.sub.ita.iCV-MIRCrew

[center]by www.icv-crew.org



NO FOUND ONLY ORIGINAL RELEASE



My release is always in double track audio italian and Original audio
for select it use VLC or dvd player home
not use wmp

Masquerade (2012)







Titolo originale ??: ?? ? ??
Gwanghae: Wang-i doen namja
Paese di produzione Corea del Sud
Anno 2012
Durata 131 min
Genere drammatico, storico
Regia Choo Chang-min
Sceneggiatura Hwang Jo-yun, Choo Chang-min
Fotografia Lee Tae-yoon
Montaggio Nam Na-young



Han Hyo-joo, Byung-hun Lee, In-kwon Kim, Seung-Ryong Ryu, Gwang Jang.



Nel mezzo di un caos nazionale e la paura per la sua vita, il tirannico re Gwanghae ordina al suo fidato consigliere Heo Gyun di trovare un sosia che possa sostituirlo al trono. Ha-seon, un mimo di professione che assomiglia inequivocabilmente al re, viene trovato e ingaggiato da Heo Gyun................



An orphan, who lives with his two cruel aunts, befriends anthropomorphic bugs who live inside a giant peach, and they embark on a journey to New York City.









[spoiler]
General
Complete name                            : Masquerade (2012).ita.kor.sub.ita.iCV-MIRcrew\Masquerade (2012).ita.kor.sub.ita.MIRcrew.avi
Format                                   : AVI
Format/Info                              : Audio Video Interleave
File size                                : 1.97 GiB
Duration                                 : 2h 6mn
Overall bit rate                         : 2 231 Kbps
Writing application                      : VirtualDubMod 1.5.4.1 (build 2178/release)
Writing library                          : VirtualDubMod build 2178/release

Video
ID                                       : 0
Format                                   : MPEG-4 Visual
Format profile                           : Advanced [email protected]
Format settings, BVOP                    : 1
Format settings, QPel                    : No
Format settings, GMC                     : No warppoints
Format settings, Matrix                  : Custom
Codec ID                                 : XVID
Codec ID/Hint                            : XviD
Duration                                 : 2h 6mn
Bit rate                                 : 1 326 Kbps
Width                                    : 688 pixels
Height                                   : 320 pixels
Display aspect ratio                     : 2.2:1
Frame rate                               : 25.000 fps
Color space                              : YUV
Chroma subsampling                       : 4:2:0
Bit depth                                : 8 bits
Scan type                                : Progressive
Compression mode                         : Lossy
Bits/(Pixel*Frame)                       : 0.241
Stream size                              : 1.17 GiB (59%)
Writing library                          : XviD 64

Audio #1
ID                                       : 1
Format                                   : AC-3
Format/Info                              : Audio Coding 3
Mode extension                           : CM (complete main)
Codec ID                                 : 2000
Duration                                 : 2h 6mn
Bit rate mode                            : Constant
Bit rate                                 : 448 Kbps
Channel(s)                               : 6 channels
Channel positions                        : Front: L C R, Side: L R, LFE
Sampling rate                            : 48.0 KHz
Bit depth                                : 16 bits
Compression mode                         : Lossy
Stream size                              : 405 MiB (20%)
Alignment                                : Split accross interleaves
Interleave, duration                     : 96 ms (2.40 video frames)
Interleave, preload duration             : 96 ms
Language                                 : Italian

Audio #2
ID                                       : 2
Format                                   : AC-3
Format/Info                              : Audio Coding 3
Mode extension                           : CM (complete main)
Codec ID                                 : 2000
Duration                                 : 2h 6mn
Bit rate mode                            : Constant
Bit rate                                 : 448 Kbps
Channel(s)                               : 6 channels
Channel positions                        : Front: L C R, Side: L R, LFE
Sampling rate                            : 48.0 KHz
Bit depth                                : 16 bits
Compression mode                         : Lossy
Stream size                              : 405 MiB (20%)
Alignment                                : Split accross interleaves
Interleave, duration                     : 96 ms (2.40 video frames)
Interleave, preload duration             : 96 ms
Language                                 : Korean


[/spoiler]

[/center]

Info: Per scaricare devi usare un client come uTorrent o Transmission
AnnounceURL
udp://tracker.coppersurfer.tk:6969/announce
Hash eb131a0400a1acb710a3fcfce68134d3df1e7a35
Peers seeds: 30 , leech: 13
Size 1.98 GB
Completato 515x
Aggiunto 27.08.17 - 06:08:22
Uploader   robbyrs
Votazione (Voti: 1)


Condividi questo bittorrent:


html/blog:


bbcode/forum:




Aggiungi Commento


counter