* Dettagli Torrent   globale  | Commenti (0) 


- The 9th Life of Louis Drax (2016).H264.Italian.English.Ac3.5.1.sub.ita.eng.iCV-MIRCrew -


Download via torrent:
Categoria bittorrent BDRip
Descrizione
The 9th Life of Louis Drax (2016).H264.Italian.English.Ac3.5.1.sub.ita.eng.iCV-MIRCrew


[center]by www.icv-crew.org


NO FOUND ONLY ORIGINAL RELEASE



My release is always in double track audio italian and Original audio
for select it use VLC or dvd player home
not use wmp

The 9th Life of Louis Drax (2016)

PRESENTI ANCHE i SOTTOTITOLI

ESTERNI IN SRT (ita/eng)







Titolo originale The 9th Life of Louis Drax
Lingua originale inglese
Paese di produzione Stati Uniti d'America, Canada, Regno Unito
Anno 2016
Durata 108 min
Rapporto 2,35 : 1
Genere thriller
Regia Alexandre Aja
Soggetto Liz Jensen (romanzo)
Sceneggiatura Max Minghella
Produttore Alexandre Aja, Max Minghella, Tim Bricknell, Shawn Williamson
Produttore esecutivo Rosanne Korenberg
Casa di produzione Brightlight Pictures, Blank Tape
Fotografia Maxime Alexandre
Montaggio Baxter
Effetti speciali Bleau Fortier, Mike Kruper
Musiche Patrick Watson
Scenografia Rachel O'Toole




   Jamie Dornan: Dr. Allan Pascal
   Sarah Gadon: Natalie
   Aaron Paul: Peter
   Aiden Longworth: Louis Drax
   Barbara Hershey: Violet
   Oliver Platt: Dr. Perez
   Molly Parker:
   Terry Chen: Elliott




Louis Drax è un bambino di nove anni intelligente e curioso, la cui breve vita è stata caratterizzata da incidenti più o meno gravi. Durante il suo nono anno di vita, Louis precipita da una scogliera durante una gita con i genitori ed entra in coma. Il Dr. Allan Pascal si interessa al suo caso e cerca di farlo uscire dal coma.



A psychologist who begins working with a young boy who has suffered a near-fatal fall finds himself drawn into a mystery that tests the boundaries of fantasy and reality.











[spoiler]
General
Unique ID                                : 30247517751320870737064513696307554570 (0x16C175C3BE722D1366F00CD40233290A)
Complete name                            : The 9th Life of Louis Drax (2016).H264.ita.eng.sub.ita.eng.iCV-MIRCrew.mkv
Format                                   : Matroska
Format version                           : Version 2
File size                                : 1.65 GiB
Duration                                 : 1h 48mn
Overall bit rate                         : 2 187 Kbps
Movie name                               : icv-crew
Encoded date                             : UTC 2017-08-16 17:20:25
Writing application                      : Lavf54.63.100
Writing library                          : Lavf54.63.100
COPYRIGHT                                : robbyrs
DATE                                     : 2017

Video
ID                                       : 1
Format                                   : AVC
Format/Info                              : Advanced Video Codec
Format profile                           : [email protected]
Format settings, CABAC                   : Yes
Format settings, ReFrames                : 2 frames
Codec ID                                 : V_MPEG4/ISO/AVC
Duration                                 : 1h 48mn
Bit rate                                 : 1 300 Kbps
Width                                    : 720 pixels
Height                                   : 304 pixels
Display aspect ratio                     : 2.40:1
Frame rate mode                          : Variable
Frame rate                               : 23.976 fps
Color space                              : YUV
Chroma subsampling                       : 4:2:0
Bit depth                                : 8 bits
Scan type                                : Progressive
Bits/(Pixel*Frame)                       : 0.248
Stream size                              : 966 MiB (57%)
Writing library                          : x264 core 130 r2273
Encoding settings                        : cabac=1 / ref=2 / deblock=1:0:0 / analyse=0x1:0x131 / me=hex / subme=7 / psy=1 / psy_rd=1.00:0.00 / mixed_ref=0 / me_range=16 / chroma_me=1 / trellis=1 / 8x8dct=0 / cqm=0 / deadzone=21,11 / fast_pskip=1 / chroma_qp_offset=-2 / threads=12 / lookahead_threads=2 / sliced_threads=0 / nr=0 / decimate=1 / interlaced=0 / bluray_compat=0 / constrained_intra=0 / bframes=3 / b_pyramid=0 / b_adapt=1 / b_bias=0 / direct=3 / weightb=1 / open_gop=0 / weightp=2 / keyint=230 / keyint_min=23 / scenecut=40 / intra_refresh=0 / rc_lookahead=40 / rc=abr / mbtree=1 / bitrate=1300 / ratetol=1.0 / qcomp=0.60 / qpmin=10 / qpmax=69 / qpstep=4 / vbv_maxrate=24000 / vbv_bufsize=24000 / nal_hrd=none / ip_ratio=1.40 / aq=1:1.00
Language                                 : Italian
Default                                  : Yes
Forced                                   : No
DURATION                                 : 01:48:12.497000000
NUMBER_OF_FRAMES                         : 155664
NUMBER_OF_BYTES                          : 6988259573
_STATISTICS_WRITING_APP                  : mkvmerge v7.2.0 ('On Every Street') 64bit built on Sep 13 2014 15:52:10
_STATISTICS_WRITING_DATE_UTC             : 2017-07-24 18:03:21
_STATISTICS_TAGS                         : BPS DURATION NUMBER_OF_FRAMES NUMBER_OF_BYTES

Audio #1
ID                                       : 2
Format                                   : AC-3
Format/Info                              : Audio Coding 3
Mode extension                           : CM (complete main)
Codec ID                                 : A_AC3
Duration                                 : 1h 48mn
Bit rate mode                            : Constant
Bit rate                                 : 448 Kbps
Channel(s)                               : 6 channels
Channel positions                        : Front: L C R, Side: L R, LFE
Sampling rate                            : 48.0 KHz
Bit depth                                : 16 bits
Compression mode                         : Lossy
Delay relative to video                  : 1mn 5s
Stream size                              : 347 MiB (20%)
Title                                    : AC3 iTA
Language                                 : Italian
Default                                  : Yes
Forced                                   : Yes
DURATION                                 : 01:48:12.544000000
NUMBER_OF_FRAMES                         : 202892
NUMBER_OF_BYTES                          : 363582464
_STATISTICS_WRITING_APP                  : mkvmerge v7.2.0 ('On Every Street') 64bit built on Sep 13 2014 15:52:10
_STATISTICS_WRITING_DATE_UTC             : 2017-07-24 18:03:21
_STATISTICS_TAGS                         : BPS DURATION NUMBER_OF_FRAMES NUMBER_OF_BYTES

Audio #2
ID                                       : 3
Format                                   : AC-3
Format/Info                              : Audio Coding 3
Mode extension                           : CM (complete main)
Codec ID                                 : A_AC3
Duration                                 : 1h 48mn
Bit rate mode                            : Constant
Bit rate                                 : 448 Kbps
Channel(s)                               : 6 channels
Channel positions                        : Front: L C R, Side: L R, LFE
Sampling rate                            : 48.0 KHz
Bit depth                                : 16 bits
Compression mode                         : Lossy
Delay relative to video                  : 1mn 5s
Stream size                              : 347 MiB (20%)
Title                                    : AC3 ENG
Language                                 : English
Default                                  : No
Forced                                   : No
DURATION                                 : 01:48:12.480000000
NUMBER_OF_FRAMES                         : 202890
NUMBER_OF_BYTES                          : 519398400
_STATISTICS_WRITING_APP                  : mkvmerge v7.2.0 ('On Every Street') 64bit built on Sep 13 2014 15:52:10
_STATISTICS_WRITING_DATE_UTC             : 2017-07-24 18:03:21
_STATISTICS_TAGS                         : BPS DURATION NUMBER_OF_FRAMES NUMBER_OF_BYTES

Text #1
ID                                       : 4
Format                                   : ASS
Codec ID                                 : S_TEXT/ASS
Codec ID/Info                            : Advanced Sub Station Alpha
Compression mode                         : Lossless
Title                                    : REGULAR iTA
Language                                 : Italian
Default                                  : No
Forced                                   : No
DURATION                                 : 01:42:45.583000000
NUMBER_OF_FRAMES                         : 1321
NUMBER_OF_BYTES                          : 46531
_STATISTICS_WRITING_APP                  : mkvmerge v7.2.0 ('On Every Street') 64bit built on Sep 13 2014 15:52:10
_STATISTICS_WRITING_DATE_UTC             : 2017-07-24 18:03:21
_STATISTICS_TAGS                         : BPS DURATION NUMBER_OF_FRAMES NUMBER_OF_BYTES

Text #2
ID                                       : 5
Format                                   : ASS
Codec ID                                 : S_TEXT/ASS
Codec ID/Info                            : Advanced Sub Station Alpha
Compression mode                         : Lossless
Title                                    : REGULAR ENG
Language                                 : English
Default                                  : No
Forced                                   : No
DURATION                                 : 01:47:03.954000000
NUMBER_OF_FRAMES                         : 1465
NUMBER_OF_BYTES                          : 48498
_STATISTICS_WRITING_APP                  : mkvmerge v7.2.0 ('On Every Street') 64bit built on Sep 13 2014 15:52:10
_STATISTICS_WRITING_DATE_UTC             : 2017-07-24 18:03:21
_STATISTICS_TAGS                         : BPS DURATION NUMBER_OF_FRAMES NUMBER_OF_BYTES

Menu
00:00:00.000                             : :00:00:00.000
00:06:47.365                             : :00:06:47.365
00:12:14.817                             : :00:12:14.817
00:17:22.291                             : :00:17:22.291
00:22:47.658                             : :00:22:47.658
00:30:06.054                             : :00:30:06.054
00:37:27.662                             : :00:37:27.662
00:43:14.383                             : :00:43:14.383
00:48:41.293                             : :00:48:41.293
00:57:06.506                             : :00:57:06.506
01:02:41.049                             : :01:02:41.049
01:07:14.072                             : :01:07:14.072
01:14:28.255                             : :01:14:28.255
01:20:15.394                             : :01:20:15.394
01:25:10.397                             : :01:25:10.397
01:38:36.035                             : :01:38:36.035


[/spoiler]

[/center]

Info: Per scaricare devi usare un client come uTorrent o Transmission
AnnounceURL
udp://tracker.coppersurfer.tk:6969/announce
Hash a1d4a9d2e5afcc53c9033a6d8575051c21e32fae
Peers seeds: 99 , leech: 8
Size 1.65 GB
Completato 2413x
Aggiunto 25.08.17 - 09:08:44
Uploader   robbyrs
Votazione (Voti: 0)


Condividi questo bittorrent:


html/blog:


bbcode/forum:




Aggiungi Commento


counter