* Dettagli Torrent   globale  | Commenti (0) 


- Lupin III - La pagina segreta di Marco Polo (2012).H264.ita.Jpn.Ac3.sub.ita.iCV-MIRCrew -


Download via torrent:
Categoria bittorrent Anime
Descrizione
Lupin III - La pagina segreta di Marco Polo (2012).H264.ita.Jpn.Ac3.sub.ita.iCV-MIRCrew

[center]

by www.icv-crew.org


NO FOUND ONLY ORIGINAL RELEASE



My release is always in double track audio italian and Original audio
for select it use VLC or dvd player home
not use wmp

Lupin III - La pagina segreta di Marco Polo (2012)





Regia Hajime Kamegaki
Produttore Suzuko Fujimoto
Soggetto Katsur? Hidaka
Char. design Masatomo Sud?
Dir. artistica Masaru Sat?
Musiche Y?ji ?no
Studio TMS Entertainment
Rete Nippon Television
1ª TV 2 novembre 2012
Aspect ratio 16:9
Durata 92 min
Rete it. Italia 1
1ª TV it. 1º ottobre 2016
Dialoghi it. Andrea De Cunto
Studio dopp. it. Logos
Dir. dopp. it. Alessio Pelicella



Naomi Watts, Jacob Tremblay, Oliver Platt, Charlie Heaton, David Cubitt, Tim Post, Crystal Balint, Clémentine Poidatz



Doppiaggio
Personaggio Doppiatore originale Doppiatore italiano
Arsenio Lupin III Kan'ichi Kurita Stefano Onofri
Daisuke Jigen Kiyoshi Kobayashi Alessandro D'Errico
Goemon Ishikawa XIII Daisuke Namikawa Antonio Palumbo
Fujiko Mine Miyuki Sawashiro Alessandra Korompay
Ispettore Zenigata K?ichi Yamadera Rodolfo Bianchi
Bernard Vilar (Bernardo Vilar) K?ji Ishii Sergio Lucchetti
Lisa Argento Marina Inoue Perla Liberatori
Sait? Musashib? Benkei XXII Ichir? Nagai Dante Biagioni
Hiromi Romi Park Vanina Marini
Rumi Yuka Terasaki Gaia Bolognesi
Ami Sora Tokui Joy Saltarelli
Theo Argento Tadashi Nakamura Pierluigi Astore
Claudio Berardi Hiroshi Tsuchida Alberto Bognanni
B?olóng Tadashi Miyazawa Massimiliano Plinio




L'archeologo Theo Argento ha ritrovato a Genova, nei sotterranei di palazzo San Giorgio, l'unica pagina mancante dal libro Il Milione di Marco Polo, nella quale sarebbe racchiuso il segreto per trovare una cosa "cento volte più preziosa dell'oro". Quando l'uomo viene ucciso, Lupin III viene accusato di essere il suo omicida..................



The archaeologist Theo Argento found in Genoa, in the San Giorgio palace subterranean, the only page missing from Marco Polo's book The Million, in which he would encircle the secret to finding something "a hundred times more precious than gold." When the man is killed, Lupine III is accused of being his murderer ..................











[spoiler]
General
Unique ID                                : 164974463574271097498727213427451749673 (0x7C1CED0AC6DCB7C769A4DF4ABD4FE529)
Complete name                            : Lupin III - La pagina segreta di Marco Polo.H264.ita.Jpn.sub.itaiCV-MIRCrew.mkv
Format                                   : Matroska
Format version                           : Version 2
File size                                : 1.08 GiB
Duration                                 : 1h 31mn
Overall bit rate                         : 1 681 Kbps
Encoded date                             : UTC 2017-08-22T15:37:46Z
Writing application                      : HandBrake 0.10.5 2016021100
Writing library                          : Lavf55.12.0

Video
ID                                       : 1
Format                                   : AVC
Format/Info                              : Advanced Video Codec
Format profile                           : [email protected]
Format settings, CABAC                   : Yes
Format settings, ReFrames                : 4 frames
Codec ID                                 : V_MPEG4/ISO/AVC
Duration                                 : 1h 31mn
Bit rate                                 : 1 290 Kbps
Width                                    : 720 pixels
Height                                   : 404 pixels
Display aspect ratio                     : 16:9
Frame rate mode                          : Variable
Frame rate                               : 23.976 fps
Color space                              : YUV
Chroma subsampling                       : 4:2:0
Bit depth                                : 8 bits
Scan type                                : Progressive
Bits/(Pixel*Frame)                       : 0.185
Stream size                              : 828 MiB (75%)
Writing library                          : x264 core 142 r2479 dd79a61
Encoding settings                        : cabac=1 / ref=1 / deblock=1:1:1 / analyse=0x1:0x111 / me=hex / subme=2 / psy=1 / psy_rd=0.40:0.00 / mixed_ref=0 / me_range=16 / chroma_me=1 / trellis=0 / 8x8dct=0 / cqm=0 / deadzone=21,11 / fast_pskip=1 / chroma_qp_offset=0 / threads=12 / lookahead_threads=3 / sliced_threads=0 / nr=0 / decimate=1 / interlaced=0 / bluray_compat=0 / constrained_intra=0 / bframes=5 / b_pyramid=2 / b_adapt=1 / b_bias=0 / direct=1 / weightb=1 / open_gop=0 / weightp=1 / keyint=240 / keyint_min=24 / scenecut=40 / intra_refresh=0 / rc_lookahead=10 / rc=abr / mbtree=1 / bitrate=1290 / ratetol=1.0 / qcomp=0.60 / qpmin=0 / qpmax=69 / qpstep=4 / vbv_maxrate=20000 / vbv_bufsize=25000 / nal_hrd=none / filler=0 / ip_ratio=1.40 / aq=1:0.60
Default                                  : Yes
Forced                                   : No
Color primaries                          : BT.709-5, BT.1361, IEC 61966-2-4, SMPTE RP177
Transfer characteristics                 : BT.709-5, BT.1361
Matrix coefficients                      : BT.709-5, BT.1361, IEC 61966-2-4 709, SMPTE RP177

Audio #1
ID                                       : 2
Format                                   : AC-3
Format/Info                              : Audio Coding 3
Mode extension                           : CM (complete main)
Codec ID                                 : A_AC3
Duration                                 : 1h 31mn
Bit rate mode                            : Constant
Bit rate                                 : 192 Kbps
Channel(s)                               : 2 channels
Channel positions                        : Front: L R
Sampling rate                            : 48.0 KHz
Bit depth                                : 16 bits
Compression mode                         : Lossy
Delay relative to video                  : 1mn 5s
Stream size                              : 126 MiB (11%)
Title                                    : Stereo
Language                                 : Italian
Default                                  : Yes
Forced                                   : No

Audio #2
ID                                       : 3
Format                                   : AC-3
Format/Info                              : Audio Coding 3
Mode extension                           : CM (complete main)
Codec ID                                 : A_AC3
Duration                                 : 1h 31mn
Bit rate mode                            : Constant
Bit rate                                 : 192 Kbps
Channel(s)                               : 2 channels
Channel positions                        : Front: L R
Sampling rate                            : 48.0 KHz
Bit depth                                : 16 bits
Compression mode                         : Lossy
Delay relative to video                  : 1mn 5s
Stream size                              : 126 MiB (11%)
Title                                    : Stereo
Language                                 : Japanese
Default                                  : No
Forced                                   : No

Menu
00:00:00.000                             : :00:00:00.000
00:01:19.996                             : :00:01:19.913
00:04:17.882                             : :00:04:17.799
00:14:13.060                             : :00:14:12.977
00:24:44.441                             : :00:24:44.358
00:36:11.335                             : :00:36:11.252
00:49:20.082                             : :00:49:19.999
00:59:34.487                             : :00:59:34.321
01:11:31.203                             : :01:11:31.120
01:17:23.055                             : :01:17:22.972
01:24:05.415                             : :01:24:05.332
01:28:12.245                             : :01:28:12.162


[/spoiler]

[/center]

Info: Per scaricare devi usare un client come uTorrent o Transmission
AnnounceURL
udp://tracker.coppersurfer.tk:6969/announce
Hash 8439e4b4433e22a7205f33a1dc9347ef810b30f8
Peers seeds: 8 , leech: 5
Size 1.08 GB
Completato 194x
Aggiunto 23.08.17 - 10:08:16
Uploader   robbyrs
Votazione (Voti: 0)


Condividi questo bittorrent:


html/blog:


bbcode/forum:




Aggiungi Commento


counter