* Dettagli Torrent   globale  | Commenti (0) 


- Orphan.Black.S05e08-10.ITA.ENG.1080p.NF.WEBMux.x264-Morpheus -


Download via torrent:
Categoria bittorrent SerieTv
Descrizione
[center]

GIUSEPPEiCV & LITTLELINX
HANNO IL PIACERE DI PRESENTARE


ORPHAN BLACK
STAGIONE 5
WEBMUX 1080p
Dual Language ITA - ENG
Multisub
Trovi tutte le nostre serie su
IL CORSARO VERDE
www.icv-crew.org





.: Dati Serie :.

Titolo originale: Orphan Black
Nazione: Canada
Anno: 2017
Genere: fantascienza, drammatico
Durata episodi: ~42 minuti
Numero episodi: 10
Ideatore: Graeme Manson, John Fawcett
Cast:
Tatiana Maslany: Sarah Manning, Beth Childs, Alison Hendrix, Cosima Niehaus, Katja Obinger, Helena, Tony Sawicki, Rachel Duncan, Krystal Goderich e M.K.
Jordan Gavaris: Felix Dawkins
Dylan Bruce: Paul Dierden
Kevin Hanchard: Detective Arthur "Art" Bell
Maria Doyle Kennedy: Siobhan Sadler
Evelyne Brochu: Delphine Cormier
Ari Millen: Mark Rollins
Kristian Bruun: Donnie Hendrix
Michiel Huisman: Cal Morrison
Zoé De Grand Maison: Grace Johanssen

A streetwise hustler is pulled into a compelling conspiracy after witnessing the suicide of a girl who looks just like her.

Sarah Manning (Tatiana Maslany) è una ragazza orfana che vive una vita irregolare. Assiste in una stazione al suicidio di una donna, Elizabeth Childs, che si butta sotto un treno in transito. La donna era fisicamente identica a lei e Sarah decide di impadronirsi della sua borsa e della sua identità.

Grazie ai soldi sottratti alla suicida, Sarah intende fuggire con Felix (Jordan Gavaris), il suo migliore amico e fratello adottivo, e sua figlia Kira, che vive con la madre adottiva di Sarah e Felix, la signora S.

Nell'intento di svuotare il conto in banca di Elizabeth Childs, Sarah indossa i panni di Beth, fingendo di essere lei al lavoro e nella vita privata. Scopre però di essere uno dei sette cloni sparsi per il mondo che qualcuno sta cercando di uccidere. Decide allora di indagare sulla sua vita e su chi ha condotto l'esperimento grazie anche all'aiuto di altri due cloni, Alison e Cosima. Inizia così per Sarah un'avventura che metterà a rischio la vita non solo sua ma anche di sua figlia Kira.

.: Screenshot :.



.: Caratteristiche Tecniche :.
[spoiler]
[left]
Orphan.Black.5x01.I.Pochi.Che.Osano.ITA.ENG.1080p.NF.WEBMux.x264-Morpheus.mkv
Format                                   : Matroska
Format version                           : Version 4 / Version 2
File size                                : 2.82 GiB
Duration                                 : 41mn 45s
Overall bit rate                         : 9 668 Kbps
Encoded date                             : UTC 2017-08-06 05:34:11
Writing application                      : mkvmerge v7.6.0 ('Garden of Dreams') 64bit built on Feb  8 2015 15:12:28
Writing library                          : libebml v1.3.1 + libmatroska v1.4.2
_STATISTICS_WRITING_APP                  : mkvmerge v7.6.0 ('Garden of Dreams') 64bit built on Feb  8 2015 15:12:28
_STATISTICS_WRITING_DATE_UTC             : 2017-08-06 05:34:11
_STATISTICS_TAGS                         : BPS DURATION NUMBER_OF_FRAMES NUMBER_OF_BYTES
DURATION                                 : 00:41:45.376000000
NUMBER_OF_FRAMES                         : 78293
NUMBER_OF_BYTES                          : 60129024

Video
ID                                       : 1
Format                                   : AVC
Format/Info                              : Advanced Video Codec
Format profile                           : [email protected]
Format settings, CABAC                   : Yes
Format settings, ReFrames                : 4 frames
Codec ID                                 : V_MPEG4/ISO/AVC
Duration                                 : 41mn 45s
Bit rate                                 : 8 900 Kbps
Width                                    : 1 920 pixels
Height                                   : 1 080 pixels
Display aspect ratio                     : 16:9
Frame rate                               : 23.976 fps
Color space                              : YUV
Chroma subsampling                       : 4:2:0
Bit depth                                : 8 bits
Scan type                                : Progressive
Bits/(Pixel*Frame)                       : 0.179
Stream size                              : 2.60 GiB (92%)
Writing library                          : x264 core 148 r2638 7599210
Encoding settings                        : cabac=1 / ref=4 / deblock=1:-3:-3 / analyse=0x3:0x133 / me=umh / subme=10 / psy=1 / psy_rd=1.00:0.00 / mixed_ref=1 / me_range=48 / chroma_me=1 / trellis=2 / 8x8dct=1 / cqm=0 / deadzone=21,11 / fast_pskip=0 / chroma_qp_offset=-2 / threads=24 / lookahead_threads=4 / sliced_threads=0 / nr=0 / decimate=0 / interlaced=0 / bluray_compat=0 / constrained_intra=0 / bframes=9 / b_pyramid=0 / b_adapt=2 / b_bias=0 / direct=3 / weightb=1 / open_gop=0 / weightp=2 / keyint=240 / keyint_min=23 / scenecut=40 / intra_refresh=0 / rc=crf / mbtree=0 / crf=17.0 / qcomp=0.60 / qpmin=10 / qpmax=51 / qpstep=4 / ip_ratio=1.40 / pb_ratio=1.30 / aq=3:0.70
Default                                  : Yes
Forced                                   : No

Audio #1
ID                                       : 2
Format                                   : AC-3
Format/Info                              : Audio Coding 3
Mode extension                           : CM (complete main)
Codec ID                                 : A_AC3
Duration                                 : 41mn 45s
Bit rate mode                            : Constant
Bit rate                                 : 192 Kbps
Channel(s)                               : 2 channels
Channel positions                        : Front: L R
Sampling rate                            : 48.0 KHz
Bit depth                                : 16 bits
Compression mode                         : Lossy
Stream size                              : 57.3 MiB (2%)
Title                                    : ITA
Language                                 : Italian
Default                                  : Yes
Forced                                   : Yes

Audio #2
ID                                       : 3
Format                                   : AC-3
Format/Info                              : Audio Coding 3
Mode extension                           : CM (complete main)
Codec ID                                 : A_AC3
Duration                                 : 41mn 45s
Bit rate mode                            : Constant
Bit rate                                 : 384 Kbps
Channel(s)                               : 6 channels
Channel positions                        : Front: L C R, Side: L R, LFE
Sampling rate                            : 48.0 KHz
Bit depth                                : 16 bits
Compression mode                         : Lossy
Stream size                              : 115 MiB (4%)
Title                                    : ENG
Language                                 : English
Default                                  : No
Forced                                   : No

Text #1
ID                                       : 4
Format                                   : UTF-8
Codec ID                                 : S_TEXT/UTF8
Codec ID/Info                            : UTF-8 Plain Text
Title                                    : ITA - Forced
Language                                 : Italian
Default                                  : Yes
Forced                                   : Yes

Text #2
ID                                       : 5
Format                                   : UTF-8
Codec ID                                 : S_TEXT/UTF8
Codec ID/Info                            : UTF-8 Plain Text
Language                                 : Italian
Default                                  : No
Forced                                   : No

Text #3
ID                                       : 6
Format                                   : UTF-8
Codec ID                                 : S_TEXT/UTF8
Codec ID/Info                            : UTF-8 Plain Text
Language                                 : English
Default                                  : No
Forced                                   : No

Text #4
ID                                       : 7
Format                                   : UTF-8
Codec ID                                 : S_TEXT/UTF8
Codec ID/Info                            : UTF-8 Plain Text
Language                                 : French
Default                                  : No
Forced                                   : No

Text #5
ID                                       : 8
Format                                   : UTF-8
Codec ID                                 : S_TEXT/UTF8
Codec ID/Info                            : UTF-8 Plain Text
Language                                 : Spanish
Default                                  : No
Forced                                   : No

Text #6
ID                                       : 9
Format                                   : UTF-8
Codec ID                                 : S_TEXT/UTF8
Codec ID/Info                            : UTF-8 Plain Text
Language                                 : Portuguese
Default                                  : No
Forced                                   : No



[/spoiler]




REST IN SEED OR




[/center]
Info: Per scaricare devi usare un client come uTorrent o Transmission
AnnounceURL
http://tracker.tntvillage.scambioetico.org:2710/announce
Hash 62b45048493238aed7972731261cd8722aa9bd06
Peers seeds: 18 , leech: 5
Size 3.89 GB
Completato 407x
Aggiunto 20.08.17 - 05:08:41
Uploader   ppb1
Votazione (Voti: 0)


Condividi questo bittorrent:


html/blog:


bbcode/forum:




Aggiungi Commento


counter