* Dettagli Torrent   globale  | Commenti (6) 


- Marvels.The.Defenders.S01.ITA.ENG.1080p.WEBMux.DD5.1.x264-Morpheus -


Download via torrent:
Categoria bittorrent SerieTv
Descrizione
[center]

GIUSEPPEiCV & LITTLELINX
HANNO IL PIACERE DI PRESENTARE


Marvel's The Defenders
Stagione 1
WEBMux 1080p
ITA ENG AC3 5.1
Sub ITA - ENG
Trovi tutte le nostre serie su
IL CORSARO VERDE
www.icv-crew.org


.: Dati Serie :.


Nazione: Stati Uniti d'America
Anno: 2017
Genere: horror, fantasy, drammatico
Stagioni 1
Episodi: 08
Durata: 55 min circa
Lingua: ITA - ENG
Cast:
• JCharlie Cox: Matt Murdock / Daredevil
• Krysten Ritter: Jessica Jones
• Mike Colter: Luke Cage
• Finn Jones: Danny Rand / Iron Fist
• Eka Darville: Malcolm Ducasse
• Elden Henson: Foggy Nelson
• Jessica Henwick: Colleen Wing
• Simone Missick: Misty Knight
• Rachael Taylor: Trish Walker
• Deborah Ann Woll: Karen Page
• Élodie Yung: Elektra Natchios

I vigilanti Daredevil, Jessica Jones, Luke Cage e Iron Fist si alleano a New York City per combattere un nemico comune: la Mano.

.: Screenshot :.



.: Caratteristiche Tecniche :.
[spoiler]
Marvels.The.Defenders.1x01.Una.Famosa.Supereroina.ITA.ENG.1080p.WEBMux.DD5.1.x264-MorpheuS.mkv
Format                                   : Matroska
Format version                           : Version 4 / Version 2
File size                                : 3.58 GiB
Duration                                 : 51mn 43s
Overall bit rate                         : 9 916 Kbps
Encoded date                             : UTC 2017-08-18 12:21:58
Writing application                      : mkvmerge v7.6.0 ('Garden of Dreams') 64bit built on Feb  8 2015 15:12:28
Writing library                          : libebml v1.3.1 + libmatroska v1.4.2
DURATION                                 : 00:50:16.847000000
NUMBER_OF_FRAMES                         : 541
NUMBER_OF_BYTES                          : 18816
_STATISTICS_WRITING_APP                  : mkvmerge v7.6.0 ('Garden of Dreams') 64bit built on Feb  8 2015 15:12:28
_STATISTICS_WRITING_DATE_UTC             : 2017-08-18 12:21:58
_STATISTICS_TAGS                         : BPS DURATION NUMBER_OF_FRAMES NUMBER_OF_BYTES

Video
ID                                       : 1
Format                                   : AVC
Format/Info                              : Advanced Video Codec
Format profile                           : [email protected]
Format settings, CABAC                   : Yes
Format settings, ReFrames                : 4 frames
Codec ID                                 : V_MPEG4/ISO/AVC
Duration                                 : 51mn 43s
Bit rate                                 : 8 950 Kbps
Width                                    : 1 920 pixels
Height                                   : 1 080 pixels
Display aspect ratio                     : 16:9
Frame rate                               : 23.976 fps
Color space                              : YUV
Chroma subsampling                       : 4:2:0
Bit depth                                : 8 bits
Scan type                                : Progressive
Bits/(Pixel*Frame)                       : 0.180
Stream size                              : 3.23 GiB (90%)
Writing library                          : x264 core 152 r2851 ba24899
Encoding settings                        : cabac=1 / ref=4 / deblock=1:-3:-3 / analyse=0x3:0x113 / me=umh / subme=8 / psy=1 / psy_rd=1.00:0.15 / mixed_ref=1 / me_range=16 / chroma_me=1 / trellis=2 / 8x8dct=1 / cqm=0 / deadzone=21,11 / fast_pskip=0 / chroma_qp_offset=-2 / threads=12 / lookahead_threads=2 / sliced_threads=0 / nr=0 / decimate=1 / interlaced=0 / bluray_compat=0 / constrained_intra=0 / bframes=3 / b_pyramid=2 / b_adapt=1 / b_bias=0 / direct=3 / weightb=1 / open_gop=0 / weightp=2 / keyint=240 / keyint_min=23 / scenecut=40 / intra_refresh=0 / rc_lookahead=50 / rc=crf / mbtree=1 / crf=17.0 / qcomp=0.60 / qpmin=0 / qpmax=69 / qpstep=4 / ip_ratio=1.40 / aq=3:0.80
Language                                 : English
Default                                  : Yes
Forced                                   : No
DURATION                                 : 00:51:43.476000000
NUMBER_OF_FRAMES                         : 74409
NUMBER_OF_BYTES                          : 3547798682
_STATISTICS_WRITING_APP                  : mkvmerge v7.6.0 ('Garden of Dreams') 64bit built on Feb  8 2015 15:12:28
_STATISTICS_WRITING_DATE_UTC             : 2017-08-18 12:21:58
_STATISTICS_TAGS                         : BPS DURATION NUMBER_OF_FRAMES NUMBER_OF_BYTES

Audio #1
ID                                       : 2
Format                                   : AC-3
Format/Info                              : Audio Coding 3
Mode extension                           : CM (complete main)
Codec ID                                 : A_AC3
Duration                                 : 51mn 43s
Bit rate mode                            : Constant
Bit rate                                 : 384 Kbps
Channel(s)                               : 6 channels
Channel positions                        : Front: L C R, Side: L R, LFE
Sampling rate                            : 48.0 KHz
Bit depth                                : 16 bits
Compression mode                         : Lossy
Stream size                              : 142 MiB (4%)
Title                                    : ITA
Language                                 : Italian
Default                                  : Yes
Forced                                   : Yes

Audio #2
ID                                       : 3
Format                                   : AC-3
Format/Info                              : Audio Coding 3
Mode extension                           : CM (complete main)
Codec ID                                 : A_AC3
Duration                                 : 51mn 43s
Bit rate mode                            : Constant
Bit rate                                 : 384 Kbps
Channel(s)                               : 6 channels
Channel positions                        : Front: L C R, Side: L R, LFE
Sampling rate                            : 48.0 KHz
Bit depth                                : 16 bits
Compression mode                         : Lossy
Stream size                              : 142 MiB (4%)
Title                                    : ENG
Language                                 : English
Default                                  : No
Forced                                   : No

Text #1
ID                                       : 4
Format                                   : UTF-8
Codec ID                                 : S_TEXT/UTF8
Codec ID/Info                            : UTF-8 Plain Text
Title                                    : ITA - Forced
Language                                 : Italian
Default                                  : Yes
Forced                                   : Yes

Text #2
ID                                       : 5
Format                                   : UTF-8
Codec ID                                 : S_TEXT/UTF8
Codec ID/Info                            : UTF-8 Plain Text
Language                                 : Italian
Default                                  : No
Forced                                   : No

Text #3
ID                                       : 6
Format                                   : UTF-8
Codec ID                                 : S_TEXT/UTF8
Codec ID/Info                            : UTF-8 Plain Text
Language                                 : English
Default                                  : No
Forced                                   : No


[/spoiler]

.: Ringraziamenti :.






RESTATE IN SEED ALTRIMENTI

 

[/center]
Info: Per scaricare devi usare un client come uTorrent o Transmission
AnnounceURL
http://tracker.tntvillage.scambioetico.org:2710/announce
Hash bc7ed5e23dfd6163e6eca6bd61963b392b20ca38
Peers seeds: 100 , leech: 112
Size 23.41 GB
Completato 1306x
Aggiunto 20.08.17 - 03:08:00
Uploader   ppb1
Votazione (Voti: 0)


Condividi questo bittorrent:


html/blog:


bbcode/forum:




Aggiungi Commento
Ultimi commenti
 ppb1   
doppio audio, sia italiano che inglese
20/08 10.25
  
ma è italiano ??
20/08 09.28
  
non cè nessuno che ha completato il torrent? rimanga in seed cosi' scarichiamo tutti
20/08 07.49
Tutti commenti (6)


counter