* Dettagli Torrent   globale  | Commenti (0) 


- Le nuove avventure di Aladino (2015).H264.Italian.french.Ac3.5.1.sub.ita.NUita.eng.iCV-MIRCrew -


Download via torrent:
Categoria bittorrent BDRip
Descrizione
Le nuove avventure di Aladino - Les Nouvelles aventures d'Aladin (2015).H264.Italian.French.Ac3.5.1.sub.ita.NUita.eng.iCV-MIRCrew

[center]by www.icv-crew.org


NO FOUND ONLY ORIGINAL RELEASE



My release is always in double track audio italian and Original audio
for select it use VLC or dvd player home
not use wmp

ENGLISH SUBTITLE INSIDE

Le nuove avventure di Aladino - Les Nouvelles aventures d'Aladin (2015)

PRESENTI ANCHE i SOTTOTITOLI

ESTERNI IN SRT (ita/eng)







Titolo Originale: Les nouvelles aventures d’Aladin
Regia: Arthur BenzaquenLe Nuove Avventure di Aladino (2015)
Attori: Kev Adams, Jean-Paul Rouve, Vanessa Guide
Genere: Commedia
Nazione: Francia
Durata: 1h 47?



Naomi Watts, Jacob Tremblay, Oliver Platt, Charlie Heaton, David Cubitt, Tim Post, Crystal Balint, Clémentine Poidatz



Alla vigilia di Natale, Sam e il suo migliore amico Khalid si travestono da Babbo Natale per compiere un furto nelle Gallerie Lafayette. Sam, però, viene subito bloccato da alcuni bambini, che gli chiedono di raccontare loro una storia…la storia di Aladino..........



A pair of losers working at department store plan to rob the place after it closes. When a bunch of kids show up begging for a story, the men launch into an improvised version of Aladdin.














[spoiler]
General
Unique ID                                : 244820045611955048557434880531597765886 (0xB82EA02CC35D26F48AD8B0D19B322CFE)
Complete name                            : Le nuove avventure di Aladino - Les Nouvelles aventures d'Aladin (2015)H264.ita.fre.sub.ita.NUita.eng.iCV-MIRCrew
Format                                   : Matroska
Format version                           : Version 2
File size                                : 1.61 GiB
Duration                                 : 1h 45mn
Overall bit rate                         : 2 181 Kbps
Movie name                               : www.icv-crew.org
Encoded date                             : UTC 2017-07-22 14:23:44
Writing application                      : mkvmerge v5.4.0 ('Piper') built on Mar 10 2012 13:34:39
Writing library                          : Lavf54.63.100
COPYRIGHT                                : robbyrs
DATE                                     : 2017

Video
ID                                       : 1
Format                                   : AVC
Format/Info                              : Advanced Video Codec
Format profile                           : [email protected]
Format settings, CABAC                   : Yes
Format settings, ReFrames                : 2 frames
Muxing mode                              : Header stripping
Codec ID                                 : V_MPEG4/ISO/AVC
Duration                                 : 1h 45mn
Bit rate                                 : 1 300 Kbps
Width                                    : 720 pixels
Height                                   : 304 pixels
Display aspect ratio                     : 2.40:1
Frame rate mode                          : Variable
Frame rate                               : 24.000 fps
Color space                              : YUV
Chroma subsampling                       : 4:2:0
Bit depth                                : 8 bits
Scan type                                : Progressive
Bits/(Pixel*Frame)                       : 0.247
Stream size                              : 939 MiB (57%)
Writing library                          : x264 core 130 r2273
Encoding settings                        : cabac=1 / ref=2 / deblock=1:0:0 / analyse=0x1:0x131 / me=hex / subme=7 / psy=1 / psy_rd=1.00:0.00 / mixed_ref=0 / me_range=16 / chroma_me=1 / trellis=1 / 8x8dct=0 / cqm=0 / deadzone=21,11 / fast_pskip=1 / chroma_qp_offset=-2 / threads=12 / lookahead_threads=2 / sliced_threads=0 / nr=0 / decimate=1 / interlaced=0 / bluray_compat=0 / constrained_intra=0 / bframes=3 / b_pyramid=0 / b_adapt=1 / b_bias=0 / direct=3 / weightb=1 / open_gop=0 / weightp=2 / keyint=240 / keyint_min=24 / scenecut=40 / intra_refresh=0 / rc_lookahead=40 / rc=abr / mbtree=1 / bitrate=1300 / ratetol=1.0 / qcomp=0.60 / qpmin=10 / qpmax=69 / qpstep=4 / vbv_maxrate=24000 / vbv_bufsize=24000 / nal_hrd=none / ip_ratio=1.40 / aq=1:1.00
Language                                 : Italian
Default                                  : Yes
Forced                                   : No
DURATION                                 : 01:45:44.959000000
NUMBER_OF_FRAMES                         : 152279
NUMBER_OF_BYTES                          : 7116278508
_STATISTICS_WRITING_APP                  : mkvmerge v7.4.0 ('Circles') 32bit built on Dec 12 2014 12:10:09
_STATISTICS_WRITING_DATE_UTC             : 2017-07-22 14:23:44
_STATISTICS_TAGS                         : BPS DURATION NUMBER_OF_FRAMES NUMBER_OF_BYTES

Audio #1
ID                                       : 2
Format                                   : AC-3
Format/Info                              : Audio Coding 3
Mode extension                           : CM (complete main)
Muxing mode                              : Header stripping
Codec ID                                 : A_AC3
Duration                                 : 1h 45mn
Bit rate mode                            : Constant
Bit rate                                 : 448 Kbps
Channel(s)                               : 6 channels
Channel positions                        : Front: L C R, Side: L R, LFE
Sampling rate                            : 48.0 KHz
Bit depth                                : 16 bits
Compression mode                         : Lossy
Delay relative to video                  : -5ms
Stream size                              : 339 MiB (21%)
Title                                    : WEBDL
Language                                 : Italian
Default                                  : Yes
Forced                                   : No
DURATION                                 : 01:45:45.024000000
NUMBER_OF_FRAMES                         : 198282
NUMBER_OF_BYTES                          : 355321344
_STATISTICS_WRITING_APP                  : mkvmerge v7.4.0 ('Circles') 32bit built on Dec 12 2014 12:10:09
_STATISTICS_WRITING_DATE_UTC             : 2017-07-22 14:23:44
_STATISTICS_TAGS                         : BPS DURATION NUMBER_OF_FRAMES NUMBER_OF_BYTES

Audio #2
ID                                       : 3
Format                                   : AC-3
Format/Info                              : Audio Coding 3
Mode extension                           : CM (complete main)
Muxing mode                              : Header stripping
Codec ID                                 : A_AC3
Duration                                 : 1h 45mn
Bit rate mode                            : Constant
Bit rate                                 : 448 Kbps
Channel(s)                               : 6 channels
Channel positions                        : Front: L C R, Side: L R, LFE
Sampling rate                            : 48.0 KHz
Bit depth                                : 16 bits
Compression mode                         : Lossy
Delay relative to video                  : -5ms
Stream size                              : 339 MiB (21%)
Language                                 : French
Default                                  : No
Forced                                   : No
DURATION                                 : 01:45:44.992000000
NUMBER_OF_FRAMES                         : 198281
NUMBER_OF_BYTES                          : 507599360
_STATISTICS_WRITING_APP                  : mkvmerge v7.4.0 ('Circles') 32bit built on Dec 12 2014 12:10:09
_STATISTICS_WRITING_DATE_UTC             : 2017-07-22 14:23:44
_STATISTICS_TAGS                         : BPS DURATION NUMBER_OF_FRAMES NUMBER_OF_BYTES

Text #1
ID                                       : 4
Format                                   : UTF-8
Codec ID                                 : S_TEXT/UTF8
Codec ID/Info                            : UTF-8 Plain Text
Default                                  : Yes
Forced                                   : No

Text #2
ID                                       : 5
Format                                   : UTF-8
Codec ID                                 : S_TEXT/UTF8
Codec ID/Info                            : UTF-8 Plain Text
Default                                  : No
Forced                                   : No

Text #3
ID                                       : 6
Format                                   : UTF-8
Codec ID                                 : S_TEXT/UTF8
Codec ID/Info                            : UTF-8 Plain Text
Default                                  : No
Forced                                   : No

Text #4
ID                                       : 7
Format                                   : UTF-8
Codec ID                                 : S_TEXT/UTF8
Codec ID/Info                            : UTF-8 Plain Text
Title                                    : Le nuove avventure di Aladino - Les Nouvelles aventures d'Aladin (2015)H264.ita.fre.sub.ita.iCV-MIRCrew
Language                                 : Italian
Default                                  : No
Forced                                   : No



[/spoiler]

[/center]

[SUB-NUita]
Info: Per scaricare devi usare un client come uTorrent o Transmission
AnnounceURL
udp://tracker.coppersurfer.tk:6969/announce
Hash cabf9ffe45058888ece56793748802e4dd900b24
Peers seeds: 59 , leech: 11
Size 1.61 GB
Completato 1493x
Aggiunto 19.08.17 - 09:08:50
Uploader   robbyrs
Votazione (Voti: 0)


Condividi questo bittorrent:


html/blog:


bbcode/forum:




Aggiungi Commento


counter