* Dettagli Torrent   globale  | Commenti (0) 


- Disorder la guardia del corpo (2015).H264.Italian.French.Ac3.5.1.sub.ita.eng.iCV-MIRCrew -


Download via torrent:
Categoria bittorrent BDRip
Descrizione
Maryland  - Disorder la guardia del corpo (2015).H264.Italian.French.Ac3.5.1.sub.ita.eng.iCV-MIRCrew


[center]BY www.icv-crew.org


NO FOUND ONLY ORIGINAL RELEASE



My release is always in double track audio italian and Original audio
for select it use VLC or dvd player home
not use wmp

Disorder la guardia del corpo - Maryland (2015)

ENGLISH SUBTITLE INSIDE







Titolo Originale: MARYLAND
Regia: Alice Winocour
Durata: h 1.38
Nazionalità:  Francia, Belgio 2015
Genere: drammatico
Al cinema nel Settembre 2015



Matthias Schoenaerts, Diane Kruger, Paul Hamy, Victor Pontecorvo, Jean-Louis Coulloc'h



Vincent è un soldato delle forze speciali francesi, affetto da disturbo post traumatico da stress, e quindi costretto per il momento a riposo. L'uomo viene assunto come guardia presso la villa del ricco libanese Imad Whalid, in Costa Azzurra, dov'è stata organizzata una serata di gala. Il milionario deve partire improvvisamente per Ginevra.................



Vincent is an ex-soldier with PTSD who is hired to protect the wife and child of a wealthy Lebanese businessman while he's out of town. Despite the apparent tranquility in Maryland, Vincent perceives an external threat.












[spoiler]
General
Unique ID                                : 294624119943899610852343199910315687255 (0xDDA68A9F579B93E9B7F69D60525FFD57)
Complete name                            : Disorder la guardia del corpo (2015).H264.ita.fre.sub.ita.eng.iCV-MIRCrew.mkv
Format                                   : Matroska
Format version                           : Version 2
File size                                : 1.50 GiB
Duration                                 : 1h 38mn
Overall bit rate                         : 2 183 Kbps
Movie name                               : www.icv-crew.org
Encoded date                             : UTC 2017-08-12 17:06:52
Writing application                      : Lavf54.63.100
Writing library                          : Lavf54.63.100
COPYRIGHT                                : robbyrs
DATE                                     : 2017

Video
ID                                       : 1
Format                                   : AVC
Format/Info                              : Advanced Video Codec
Format profile                           : [email protected]
Format settings, CABAC                   : Yes
Format settings, ReFrames                : 2 frames
Codec ID                                 : V_MPEG4/ISO/AVC
Duration                                 : 1h 38mn
Bit rate                                 : 1 289 Kbps
Width                                    : 720 pixels
Height                                   : 384 pixels
Display aspect ratio                     : 1.854
Original display aspect ratio            : 1.853
Frame rate mode                          : Variable
Frame rate                               : 23.976 fps
Color space                              : YUV
Chroma subsampling                       : 4:2:0
Bit depth                                : 8 bits
Scan type                                : Progressive
Bits/(Pixel*Frame)                       : 0.194
Stream size                              : 874 MiB (57%)
Writing library                          : x264 core 130 r2273
Encoding settings                        : cabac=1 / ref=2 / deblock=1:0:0 / analyse=0x1:0x131 / me=hex / subme=7 / psy=1 / psy_rd=1.00:0.00 / mixed_ref=0 / me_range=16 / chroma_me=1 / trellis=1 / 8x8dct=0 / cqm=0 / deadzone=21,11 / fast_pskip=1 / chroma_qp_offset=-2 / threads=12 / lookahead_threads=2 / sliced_threads=0 / nr=0 / decimate=1 / interlaced=0 / bluray_compat=0 / constrained_intra=0 / bframes=3 / b_pyramid=0 / b_adapt=1 / b_bias=0 / direct=3 / weightb=1 / open_gop=0 / weightp=2 / keyint=230 / keyint_min=23 / scenecut=40 / intra_refresh=0 / rc_lookahead=40 / rc=abr / mbtree=1 / bitrate=1289 / ratetol=1.0 / qcomp=0.60 / qpmin=10 / qpmax=69 / qpstep=4 / vbv_maxrate=24000 / vbv_bufsize=24000 / nal_hrd=none / ip_ratio=1.40 / aq=1:1.00
Language                                 : Italian
Default                                  : Yes
Forced                                   : No
DURATION                                 : 01:38:18.935000000
NUMBER_OF_FRAMES                         : 141433
NUMBER_OF_BYTES                          : 7027361532
_STATISTICS_WRITING_APP                  : mkvmerge v8.3.0 ('Over the Horizon') 64bit
_STATISTICS_WRITING_DATE_UTC             : 2017-07-16 09:12:08
_STATISTICS_TAGS                         : BPS DURATION NUMBER_OF_FRAMES NUMBER_OF_BYTES

Audio #1
ID                                       : 2
Format                                   : AC-3
Format/Info                              : Audio Coding 3
Mode extension                           : CM (complete main)
Codec ID                                 : A_AC3
Duration                                 : 1h 38mn
Bit rate mode                            : Constant
Bit rate                                 : 448 Kbps
Channel(s)                               : 6 channels
Channel positions                        : Front: L C R, Side: L R, LFE
Sampling rate                            : 48.0 KHz
Bit depth                                : 16 bits
Compression mode                         : Lossy
Delay relative to video                  : 1mn 5s
Stream size                              : 315 MiB (21%)
Language                                 : Italian
Default                                  : Yes
Forced                                   : No
DURATION                                 : 01:38:16.288000000
NUMBER_OF_FRAMES                         : 184259
NUMBER_OF_BYTES                          : 330192128
_STATISTICS_WRITING_APP                  : mkvmerge v8.3.0 ('Over the Horizon') 64bit
_STATISTICS_WRITING_DATE_UTC             : 2017-07-16 09:12:08
_STATISTICS_TAGS                         : BPS DURATION NUMBER_OF_FRAMES NUMBER_OF_BYTES

Audio #2
ID                                       : 3
Format                                   : AC-3
Format/Info                              : Audio Coding 3
Mode extension                           : CM (complete main)
Codec ID                                 : A_AC3
Duration                                 : 1h 38mn
Bit rate mode                            : Constant
Bit rate                                 : 448 Kbps
Channel(s)                               : 6 channels
Channel positions                        : Front: L C R, Side: L R, LFE
Sampling rate                            : 48.0 KHz
Bit depth                                : 16 bits
Compression mode                         : Lossy
Delay relative to video                  : 1mn 5s
Stream size                              : 315 MiB (21%)
Language                                 : French
Default                                  : No
Forced                                   : No
DURATION                                 : 01:38:18.976000000
NUMBER_OF_FRAMES                         : 184343
NUMBER_OF_BYTES                          : 471918080
_STATISTICS_WRITING_APP                  : mkvmerge v8.3.0 ('Over the Horizon') 64bit
_STATISTICS_WRITING_DATE_UTC             : 2017-07-16 09:12:08
_STATISTICS_TAGS                         : BPS DURATION NUMBER_OF_FRAMES NUMBER_OF_BYTES

Text #1
ID                                       : 4
Format                                   : ASS
Codec ID                                 : S_TEXT/ASS
Codec ID/Info                            : Advanced Sub Station Alpha
Compression mode                         : Lossless
Title                                    : FORCED iTA
Language                                 : Italian
Default                                  : Yes
Forced                                   : No
DURATION                                 : 00:52:37.294000000
NUMBER_OF_FRAMES                         : 26
NUMBER_OF_BYTES                          : 1434
_STATISTICS_WRITING_APP                  : mkvmerge v8.3.0 ('Over the Horizon') 64bit
_STATISTICS_WRITING_DATE_UTC             : 2017-07-16 09:12:08
_STATISTICS_TAGS                         : BPS DURATION NUMBER_OF_FRAMES NUMBER_OF_BYTES

Text #2
ID                                       : 5
Format                                   : ASS
Codec ID                                 : S_TEXT/ASS
Codec ID/Info                            : Advanced Sub Station Alpha
Compression mode                         : Lossless
Title                                    : REGOLARI iTA
Language                                 : Italian
Default                                  : No
Forced                                   : No
DURATION                                 : 01:32:48.614000000
NUMBER_OF_FRAMES                         : 597
NUMBER_OF_BYTES                          : 19475
_STATISTICS_WRITING_APP                  : mkvmerge v8.3.0 ('Over the Horizon') 64bit
_STATISTICS_WRITING_DATE_UTC             : 2017-07-16 09:12:08
_STATISTICS_TAGS                         : BPS DURATION NUMBER_OF_FRAMES NUMBER_OF_BYTES

Text #3
ID                                       : 6
Format                                   : ASS
Codec ID                                 : S_TEXT/ASS
Codec ID/Info                            : Advanced Sub Station Alpha
Compression mode                         : Lossless
Title                                    : REGOLARI ENG
Language                                 : English
Default                                  : No
Forced                                   : No
DURATION                                 : 01:31:43.290000000
NUMBER_OF_FRAMES                         : 568
NUMBER_OF_BYTES                          : 16279
_STATISTICS_WRITING_APP                  : mkvmerge v8.3.0 ('Over the Horizon') 64bit
_STATISTICS_WRITING_DATE_UTC             : 2017-07-16 09:12:08
_STATISTICS_TAGS                         : BPS DURATION NUMBER_OF_FRAMES NUMBER_OF_BYTES

Menu
00:00:00.000                             : :00:00:00.000
00:11:07.542                             : :00:11:07.542
00:20:13.504                             : :00:20:13.504
00:31:43.944                             : :00:31:43.944
00:40:26.215                             : :00:40:26.215
00:51:38.887                             : :00:51:38.887
01:01:44.492                             : :01:01:44.492
01:12:59.292                             : :01:12:59.292
01:23:07.274                             : :01:23:07.274
01:34:33.084                             : :01:34:33.084



[/spoiler]

[/center]

Info: Per scaricare devi usare un client come uTorrent o Transmission
AnnounceURL
udp://tracker.coppersurfer.tk:6969/announce
Hash aa52fabf714ca86b609525255059e5581f605f09
Peers seeds: 111 , leech: 8
Size 1.50 GB
Completato 1717x
Aggiunto 18.08.17 - 05:08:43
Uploader   robbyrs
Votazione (Voti: 2)


Condividi questo bittorrent:


html/blog:


bbcode/forum:




Aggiungi Commento


counter