* Dettagli Torrent   globale  | Commenti (0) 


- 5 donne per l assassino (1974).H264.Italian.Ac3.sub.eng.iCV-MIRCrew -


Download via torrent:
Categoria bittorrent BDRip
Descrizione
Five Women for the Killer - 5 donne per l'assassino (1974).H264.Italian.Ac3.sub.eng.iCV-MIRCrew

[center]by www.icv-crew.org


NO FOUND ONLY ORIGINAL RELEASE



My release is always in double track audio italian and Original audio
for select it use VLC or dvd player home
not use wmp

5 donne per l'assassino - Five Women for the Killer (1974)


ENGLISH SUBTITLE INSIDE







Titolo originale 5 donne per l'assassino
Paese di produzione Italia, Francia
Anno 1974
Durata 96 min
Genere giallo
Regia Stelvio Massi
Soggetto Roberto Gianviti, Gianfranco Clerici
Sceneggiatura Roberto Gianviti, Gianfranco Clerici, Vincenzo Mannino
Produttore Carlo Maietto
Casa di produzione Thousand Cinematografica, Les Film La Boétie
Distribuzione (Italia) Alpherat
Montaggio Maurizio Bonanni
Musiche Giorgio Gaslini
Scenografia Sergio Palmieri
Costumi Sergio Palmieri
Trucco Bianca Verdirosi




   Francis Matthews: Giorgio Pisani
   Pascale Rivault: dottoressa Lidia Franzi
   Howard Ross: commissario
   Giorgio Albertazzi: professor Aldo Betti
   Katia Christine: Alba
   Gabriella Lepori: Sofia
   Catherine Diamant: Oriana
   Cicciolina / Elena Mercuri: Tiffany
   Tom Felleghy: direttore del giornale
   Maria Cumani Quasimodo: Marta
   Lia Bresciani
   Alessandro Quasimodo
   Amedeo Baratti
   Franco Moraldi
   Ugo Pompognini
   Piero Corbetta
   Edmondo Sannazzaro




Giorgio Pisani, scrittore pavese di grande successo, giunto all'aeroporto di Milano, apprende telefonicamante da zia Marta che sua moglie Erica sta per dare alla luce un bambino. Emozionato, Giorgio, si precipita nella sua villa di Pavia ma, al suo arrivo, ad attenderlo vi è Lidia, dottoressa amica di famiglia..........



Thriller about a reporter who comes home from an overseas assignment to find his baby in the hospital and his wife dead. The baby isn't his, the reporter learns from his doctor friend Lydia...













[spoiler]
General
Unique ID                                : 115873321060542437526139535899622937648 (0x572C63CF15A522C71A96EC75C7089430)
Complete name                            : 5 donne per l'assassino - Five Women for the Killer (1974).Ita.sub.eng.iCV-MIRCrew.mkv
Format                                   : Matroska
Format version                           : Version 2
File size                                : 983 MiB
Duration                                 : 1h 34mn
Overall bit rate                         : 1 449 Kbps
Encoded date                             : UTC 2017-08-16T17:36:25Z
Writing application                      : HandBrake 0.10.5 2016021100
Writing library                          : Lavf55.12.0

Video
ID                                       : 1
Format                                   : AVC
Format/Info                              : Advanced Video Codec
Format profile                           : [email protected]
Format settings, CABAC                   : Yes
Format settings, ReFrames                : 4 frames
Codec ID                                 : V_MPEG4/ISO/AVC
Duration                                 : 1h 34mn
Bit rate                                 : 1 228 Kbps
Nominal bit rate                         : 1 290 Kbps
Width                                    : 640 pixels
Height                                   : 352 pixels
Display aspect ratio                     : 16:9
Frame rate mode                          : Variable
Frame rate                               : 25.000 fps
Color space                              : YUV
Chroma subsampling                       : 4:2:0
Bit depth                                : 8 bits
Scan type                                : Progressive
Bits/(Pixel*Frame)                       : 0.218
Stream size                              : 833 MiB (85%)
Writing library                          : x264 core 142 r2479 dd79a61
Encoding settings                        : cabac=1 / ref=1 / deblock=1:-1:-1 / analyse=0x1:0x111 / me=hex / subme=2 / psy=1 / psy_rd=1.00:0.15 / mixed_ref=0 / me_range=16 / chroma_me=1 / trellis=0 / 8x8dct=0 / cqm=0 / deadzone=21,11 / fast_pskip=1 / chroma_qp_offset=0 / threads=12 / lookahead_threads=2 / sliced_threads=0 / nr=0 / decimate=1 / interlaced=0 / bluray_compat=0 / constrained_intra=0 / bframes=3 / b_pyramid=2 / b_adapt=1 / b_bias=0 / direct=1 / weightb=1 / open_gop=0 / weightp=1 / keyint=250 / keyint_min=25 / scenecut=40 / intra_refresh=0 / rc_lookahead=10 / rc=abr / mbtree=1 / bitrate=1290 / ratetol=1.0 / qcomp=0.60 / qpmin=0 / qpmax=69 / qpstep=4 / vbv_maxrate=20000 / vbv_bufsize=25000 / nal_hrd=none / filler=0 / ip_ratio=1.40 / aq=1:1.00
Default                                  : Yes
Forced                                   : No
Color primaries                          : BT.470-6 System B, BT.470-6 System G, BT.601-6 625, BT.1358 625, BT.1700 625 PAL, BT.1700 625 SECAM
Transfer characteristics                 : BT.709-5, BT.1361
Matrix coefficients                      : BT.601-6 525, BT.1358 525, BT.1700 NTSC, SMPTE 170M

Audio
ID                                       : 2
Format                                   : AC-3
Format/Info                              : Audio Coding 3
Mode extension                           : CM (complete main)
Codec ID                                 : A_AC3
Duration                                 : 1h 34mn
Bit rate mode                            : Constant
Bit rate                                 : 192 Kbps
Channel(s)                               : 2 channels
Channel positions                        : Front: L R
Sampling rate                            : 48.0 KHz
Bit depth                                : 16 bits
Compression mode                         : Lossy
Delay relative to video                  : 1mn 5s
Stream size                              : 130 MiB (13%)
Title                                    : Stereo
Default                                  : Yes
Forced                                   : No



[/spoiler]

[/center]

Info: Per scaricare devi usare un client come uTorrent o Transmission
AnnounceURL
udp://tracker.coppersurfer.tk:6969/announce
Hash 3711a2663c16517316fbd38b7ad79dd1efc7cda0
Peers seeds: 26 , leech: 0
Size 983.22 MB
Completato 376x
Aggiunto 18.08.17 - 03:08:11
Uploader   robbyrs
Votazione (Voti: 2)


Condividi questo bittorrent:


html/blog:


bbcode/forum:




Aggiungi Commento


counter