* Dettagli Torrent   globale  | Commenti (0) 


- Guardians.Of.The.Night.I.Guardiani.Della.Notte.2016.iTA.RUS.Bluray.1080p.x264-DDNCREW.mkv -


Download via torrent:
Categoria bittorrent BDRip
Descrizione
[center]

GIUSEPPEiCV & LITTLELINX
HANNO IL PIACERE DI PRESENTARE

Guardians of the Night
I guardiani della notte

BDRIP 1080p

ITA - RUS
Sub ITA
Trovi tutte le nostre release su
IL CORSARO VERDE
www.icv-crew.org





.: Dati :.

Titolo originale: Nochnye strazhi
Paese: Russia
Anno: 2016
Durata: 101 min
Genere: Action
Regia: Emilis Velyvis
Cast: Ivan Yankovskiy, Leonid Yarmolnik, Lyubov Aksyonova, Sabina Akhmedova

Contemporary Moscow. When eighteen-year-old Pasha rescues a beautiful young woman from a band of strangely powerful attackers, he discovers an underworld of supernatural beings living among us.

L’EQUILIBRIO TRA LUCE E TENEBRE SI E’ SPEZZATO.

Il giovane Pasha è un normale diciottenne: è timido e svogliato, vive con la madre, ha un lavoro che non lo soddisfa e passa le sue giornate consegnando corrispondenza e navigando in internet. Un giorno si imbatte per caso in Dana, una popstar sulla cresta dell’onda, aiutandola con coraggio e fortuna a mettersi in salvo da un gruppo di feroci aggressori che si riveleranno essere vampiri.
Pasha verrà così arruolato tra le fila di un’organizzazione segreta che da millenni sorveglia sul fragile equilibrio tra il mondo degli umani e quello delle creature soprannaturali con il compito di preservare la pace sulla Terra e ricacciare le creature infernali negli inferi qualora tentassero di rompere l’alleanza. Ma qualcosa in questo fragile equilibrio è venuto meno, le creature sono decise a schiacciare il genere umano e per farlo hanno bisogno di Dana. Per i guardiani della notte sono pronti a tornare in campo per combattere la guerra per cui si sono preparati da secoli.

.: Screenshot :.











.: Caratteristiche Tecniche :.
[spoiler]
Guardians.Of.The.Night.I.Guardiani.Della.Notte.2016.iTA.RUS.Bluray.1080p.x264-DDNCREW.mkv
Format                                   : Matroska
Format version                           : Version 4 / Version 2
File size                                : 8.60 GiB
Duration                                 : 1h 41mn
Overall bit rate                         : 12.2 Mbps
Encoded date                             : UTC 2017-07-29 14:41:02
Writing application                      : mkvmerge v8.3.0 ('Over the Horizon') 64bit
Writing library                          : libebml v1.3.1 + libmatroska v1.4.2
DURATION                                 : 01:32:13.792000000
NUMBER_OF_FRAMES                         : 588
NUMBER_OF_BYTES                          : 17656
_STATISTICS_WRITING_APP                  : mkvmerge v8.3.0 ('Over the Horizon') 64bit
_STATISTICS_WRITING_DATE_UTC             : 2017-07-29 14:41:02
_STATISTICS_TAGS                         : BPS DURATION NUMBER_OF_FRAMES NUMBER_OF_BYTES

Video
ID                                       : 1
Format                                   : AVC
Format/Info                              : Advanced Video Codec
Format profile                           : [email protected]
Format settings, CABAC                   : Yes
Format settings, ReFrames                : 5 frames
Codec ID                                 : V_MPEG4/ISO/AVC
Duration                                 : 1h 41mn
Bit rate                                 : 9 608 Kbps
Width                                    : 1 920 pixels
Height                                   : 800 pixels
Display aspect ratio                     : 2.40:1
Frame rate                               : 23.976 fps
Color space                              : YUV
Chroma subsampling                       : 4:2:0
Bit depth                                : 8 bits
Scan type                                : Progressive
Bits/(Pixel*Frame)                       : 0.261
Stream size                              : 6.60 GiB (77%)
Writing library                          : x264 core 150 r2833+58 090e24f t_mod_Custom [[email protected] X86_64]
Encoding settings                        : cabac=1 / ref=5 / deblock=1:-2:-2 / analyse=0x3:0x133 / me=umh / subme=7 / psy=1 / fade_compensate=0.00 / psy_rd=1.05:0.00 / mixed_ref=1 / me_range=32 / chroma_me=1 / trellis=2 / 8x8dct=1 / cqm=0 / deadzone=21,11 / fast_pskip=0 / chroma_qp_offset=-2 / threads=18 / lookahead_threads=3 / sliced_threads=0 / nr=0 / decimate=0 / interlaced=0 / bluray_compat=0 / constrained_intra=0 / fgo=0 / bframes=3 / b_pyramid=2 / b_adapt=2 / b_bias=0 / direct=3 / weightb=1 / open_gop=0 / weightp=2 / keyint=240 / keyint_min=23 / scenecut=40 / intra_refresh=0 / rc_lookahead=40 / rc=2pass / mbtree=0 / bitrate=9608 / ratetol=1.0 / qcomp=0.65 / qpmin=0:0:0 / qpmax=69:69:69 / qpstep=4 / cplxblur=20.0 / qblur=0.5 / vbv_maxrate=50000 / vbv_bufsize=50000 / nal_hrd=none / filler=0 / ip_ratio=1.40 / pb_ratio=1.30 / aq=3:0.80 / aq-sensitivity=10.00 / aq-factor=1.00:1.00:1.00 / aq2=0 / aq3=0
Language                                 : English
Default                                  : Yes
Forced                                   : No
DURATION                                 : 01:41:01.639000000
NUMBER_OF_FRAMES                         : 145334
NUMBER_OF_BYTES                          : 7268478660
_STATISTICS_WRITING_APP                  : mkvmerge v8.3.0 ('Over the Horizon') 64bit
_STATISTICS_WRITING_DATE_UTC             : 2017-07-29 14:41:02
_STATISTICS_TAGS                         : BPS DURATION NUMBER_OF_FRAMES NUMBER_OF_BYTES

Audio #1
ID                                       : 2
Format                                   : DTS
Format/Info                              : Digital Theater Systems
Codec ID                                 : A_DTS
Duration                                 : 1h 41mn
Bit rate mode                            : Constant
Bit rate                                 : 1 510 Kbps
Channel(s)                               : 6 channels
Channel positions                        : Front: L C R, Side: L R, LFE
Sampling rate                            : 48.0 KHz
Bit depth                                : 24 bits
Compression mode                         : Lossy
Stream size                              : 1.07 GiB (12%)
Title                                    : DTS 5.1
Language                                 : Russian
Default                                  : No
Forced                                   : No

Audio #2
ID                                       : 3
Format                                   : AC-3
Format/Info                              : Audio Coding 3
Mode extension                           : CM (complete main)
Codec ID                                 : A_AC3
Duration                                 : 1h 41mn
Bit rate mode                            : Constant
Bit rate                                 : 640 Kbps
Channel(s)                               : 6 channels
Channel positions                        : Front: L C R, Side: L R, LFE
Sampling rate                            : 48.0 KHz
Bit depth                                : 16 bits
Compression mode                         : Lossy
Stream size                              : 462 MiB (5%)
Title                                    : AC3
Language                                 : Russian
Default                                  : No
Forced                                   : No

Audio #3
ID                                       : 4
Format                                   : AC-3
Format/Info                              : Audio Coding 3
Mode extension                           : CM (complete main)
Codec ID                                 : A_AC3
Duration                                 : 1h 41mn
Bit rate mode                            : Constant
Bit rate                                 : 448 Kbps
Channel(s)                               : 6 channels
Channel positions                        : Front: L C R, Side: L R, LFE
Sampling rate                            : 48.0 KHz
Bit depth                                : 16 bits
Compression mode                         : Lossy
Stream size                              : 324 MiB (4%)
Title                                    : AC3 DVD Resync
Language                                 : Italian
Default                                  : Yes
Forced                                   : No

Text #1
ID                                       : 5
Format                                   : UTF-8
Codec ID                                 : S_TEXT/UTF8
Codec ID/Info                            : UTF-8 Plain Text
Title                                    : forced
Language                                 : Italian
Default                                  : Yes
Forced                                   : No

Text #2
ID                                       : 6
Format                                   : UTF-8
Codec ID                                 : S_TEXT/UTF8
Codec ID/Info                            : UTF-8 Plain Text
Title                                    : regular
Language                                 : Italian
Default                                  : No
Forced                                   : No

Menu #1
00:00:00.000                             : en:00:00:00.000
00:08:31.761                             : en:00:08:31.761
00:16:33.159                             : en:00:16:33.159
00:24:32.971                             : en:00:24:32.971
00:34:38.326                             : en:00:34:38.326
00:44:11.858                             : en:00:44:11.858
00:52:39.615                             : en:00:52:39.615
01:01:05.203                             : en:01:01:05.203
01:09:50.353                             : en:01:09:50.353
01:19:00.819                             : en:01:19:00.819
01:26:46.076                             : en:01:26:46.076
01:33:54.963                             : en:01:33:54.963

Menu #2
00:00:00.000                             : en:00:00:00.000
00:08:31.761                             : en:00:08:31.761
00:16:33.159                             : en:00:16:33.159
00:24:32.971                             : en:00:24:32.971
00:34:38.326                             : en:00:34:38.326
00:44:11.858                             : en:00:44:11.858
00:52:39.615                             : en:00:52:39.615
01:01:05.203                             : en:01:01:05.203
01:09:50.353                             : en:01:09:50.353
01:19:00.819                             : en:01:19:00.819
01:26:46.076                             : en:01:26:46.076
01:33:54.963                             : en:01:33:54.963


[/spoiler]


RINGRAZIAMENTI




RESTATE IN SEED ALTRIMENTI

[/center]
Info: Per scaricare devi usare un client come uTorrent o Transmission
AnnounceURL
udp://tracker.opentrackr.org:1337/announce
Hash 30149abdb18146c6c2bb390a600724a81ebeaf40
Peers seeds: 63 , leech: 58
Size 8.60 GB
Completato 386x
Aggiunto 16.08.17 - 06:08:26
Uploader   ppb1
Votazione (Voti: 0)


Condividi questo bittorrent:


html/blog:


bbcode/forum:




Aggiungi Commento


counter