* Dettagli Torrent   globale  | Commenti (0) 


- Insospettabili sospetti (2017).Italian.English.Ac3.5.1.sub.ita.eng.iCV-MIRCrew -


Download via torrent:
Categoria bittorrent BDRip
Descrizione
Going in Style - Insospettabili sospetti (2017).Italian.English.Ac3.5.1.sub.ita.eng.iCV-MIRCrew


[center]by www.icv-crew.org


NO FOUND ONLY ORIGINAL RELEASE



My release is always in double track audio italian and Original audio
for select it use VLC or dvd player home
not use wmp

Insospettabili sospetti - Going in Style (2017)








   DATA USCITA: 04 maggio 2017
   GENERE: Commedia
   ANNO: 2017
   REGIA: Zach Braff
   
   PAESE: USA
   DURATA: 96 Min
   DISTRIBUZIONE: Warner Bros.




Morgan Freeman, Michael Caine, Alan Arkin, Joey King, Ann-Margret, Christopher Lloyd, Matt Dillon, Maria Dizzia, Peter Serafinowicz, John Ortiz, Kenan Thompson, Josh Pais



tre amici di vecchia data. Stufi di star seduti tutto il giorno su una panchina al parco a osservare i piccioni che beccano le briciole, i tre pensionati cercano un modo per dare una svolta alla propria vita. Come se non bastasse la monotonia delle giornate, di colpo vedono i loro fondi pensione andare in fumo a causa della banca che li ha utilizzati per coprire un'assicurazione aziendale e...............



Desperate to pay the bills and come through for their loved ones, three lifelong pals risk it all by embarking on a daring bid to knock off the very bank that absconded with their money.  













[spoiler]
General
Complete name                            : Insospettabili sospetti - Going in Style (2017).ita.eng.sub.ita.eng.iCV-MIRCrew.avi
Format                                   : AVI
Format/Info                              : Audio Video Interleave
File size                                : 1.62 GiB
Duration                                 : 1h 36mn
Overall bit rate                         : 2 407 Kbps
Movie name                               : www.icv-crew.org
Recorded date                            : 2017
Writing application                      : VirtualDubMod 1.5.10.2 (build 2540/release)
Writing library                          : VirtualDubMod build 2540/release
Copyright                                : robbyrs

Video
ID                                       : 0
Format                                   : MPEG-4 Visual
Format profile                           : [email protected]
Format settings, BVOP                    : No
Format settings, QPel                    : No
Format settings, GMC                     : No warppoints
Format settings, Matrix                  : Default (H.263)
Codec ID                                 : XVID
Codec ID/Hint                            : XviD
Duration                                 : 1h 36mn
Bit rate                                 : 1 497 Kbps
Width                                    : 720 pixels
Height                                   : 300 pixels
Display aspect ratio                     : 2.40:1
Frame rate                               : 23.976 fps
Color space                              : YUV
Chroma subsampling                       : 4:2:0
Bit depth                                : 8 bits
Scan type                                : Progressive
Compression mode                         : Lossy
Bits/(Pixel*Frame)                       : 0.289
Stream size                              : 1.01 GiB (62%)
Writing library                          : XviD 64

Audio #1
ID                                       : 1
Format                                   : AC-3
Format/Info                              : Audio Coding 3
Mode extension                           : CM (complete main)
Codec ID                                 : 2000
Duration                                 : 1h 36mn
Bit rate mode                            : Constant
Bit rate                                 : 448 Kbps
Channel(s)                               : 6 channels
Channel positions                        : Front: L C R, Side: L R, LFE
Sampling rate                            : 48.0 KHz
Bit depth                                : 16 bits
Compression mode                         : Lossy
Stream size                              : 309 MiB (19%)
Alignment                                : Split accross interleaves
Interleave, duration                     : 42 ms (1.00 video frame)
Interleave, preload duration             : 500 ms

Audio #2
ID                                       : 2
Format                                   : AC-3
Format/Info                              : Audio Coding 3
Mode extension                           : CM (complete main)
Codec ID                                 : 2000
Duration                                 : 1h 36mn
Bit rate mode                            : Constant
Bit rate                                 : 448 Kbps
Channel(s)                               : 6 channels
Channel positions                        : Front: L C R, Side: L R, LFE
Sampling rate                            : 48.0 KHz
Bit depth                                : 16 bits
Compression mode                         : Lossy
Stream size                              : 309 MiB (19%)
Alignment                                : Split accross interleaves
Interleave, duration                     : 42 ms (1.00 video frame)
Interleave, preload duration             : 500 ms



[/spoiler]

[/center]

Info: Per scaricare devi usare un client come uTorrent o Transmission
AnnounceURL
udp://tracker.coppersurfer.tk:6969/announce
Hash 43c40d4760383ab43865187d569a42f56f763537
Peers seeds: 168 , leech: 68
Size 1.64 GB
Completato 2706x
Aggiunto 16.08.17 - 04:08:32
Uploader   robbyrs
Votazione (Voti: 0)


Condividi questo bittorrent:


html/blog:


bbcode/forum:




Aggiungi Commento


counter