* Dettagli Torrent   globale  | Commenti (0) 


- Resistance - la battaglia di Sebastopoli (2015).Italian.English/Rus.Ac3.5.1.sub.ita.eng.MIRCrew -


Download via torrent:
Categoria bittorrent BDRip
Descrizione
Battle For Sevastopol - Resistance - la battaglia di Sebastopoli (2015).Italian.English/Rus.Ac3.5.1.sub.ita.eng.MIRCrew


[center]by www.icv-mircrew.org


NO FOUND ONLY ORIGINAL RELEASE



My release is always in double track audio italian and Original audio
for select it use VLC or dvd player home
not use wmp

Resistance - la battaglia di Sebastopoli - Battle For Sevastopol - Bitva za Sevastopol (2015)

ENGLISH SUBTITLE INSIDE







Titolo Originale: BITVA ZA SEVASTOPOL
Regia: Sergey Mokritskiy

Durata: h 1.50
Nazionalità:  Ucraina 2015
Genere: biografico



Yuliya Peresild, Evgeniy Tsyganov, Joan Blackham, Anatoliy Kot, Oleg Vasilkov, Nikita Tarasov, Stanislav Boklan, Natella Abeleva-Taganova, Sergey Anashkin, Sebastian Anton



La storia di una donna che ha cambiato il corso della storia: Lyudmila Pavlichenko. Leggendario cecchino sovietico donna durante la Seconda guerra mondiale, Lyudmila ha visto morte e sofferenza sui campi di battaglia ma la sua prova più dura è stata quella che ha dovuto subire per via dell'amore, fortemente compromesso dal conflitto.................



The film opens and closes with post-war scenes from the perspective of Eleanor Roosevelt (Joan Blackham) as she visits the protagonist Lyudmila Pavlichenko (Yulia Peresild) during the former first lady's 1957 trip to the Soviet Union.








[spoiler]
General
Complete name                            : Resistance la battaglia di Sebastopoli (2015).XviD.Ita.Rus-Eng.sub.ita.eng.iCV-MIRCrew.avi
Format                                   : AVI
Format/Info                              : Audio Video Interleave
Format profile                           : OpenDML
File size                                : 2.07 GiB
Duration                                 : 2h 2mn
Overall bit rate                         : 2 410 Kbps
Movie name                               : www.icv-crew.org
Recorded date                            : 2017
Writing application                      : VirtualDubMod 1.5.10.2 (build 2540/release)
Writing library                          : VirtualDubMod build 2540/release
Copyright                                : robbyrs

Video
ID                                       : 0
Format                                   : MPEG-4 Visual
Format profile                           : [email protected]
Format settings, BVOP                    : No
Format settings, QPel                    : No
Format settings, GMC                     : No warppoints
Format settings, Matrix                  : Default (H.263)
Codec ID                                 : XVID
Codec ID/Hint                            : XviD
Duration                                 : 2h 2mn
Bit rate                                 : 1 496 Kbps
Width                                    : 688 pixels
Height                                   : 288 pixels
Display aspect ratio                     : 2.40:1
Frame rate                               : 24.000 fps
Color space                              : YUV
Chroma subsampling                       : 4:2:0
Bit depth                                : 8 bits
Scan type                                : Progressive
Compression mode                         : Lossy
Bits/(Pixel*Frame)                       : 0.315
Stream size                              : 1.28 GiB (62%)
Writing library                          : XviD 64

Audio #1
ID                                       : 1
Format                                   : AC-3
Format/Info                              : Audio Coding 3
Mode extension                           : CM (complete main)
Codec ID                                 : 2000
Duration                                 : 2h 2mn
Bit rate mode                            : Constant
Bit rate                                 : 448 Kbps
Channel(s)                               : 6 channels
Channel positions                        : Front: L C R, Side: L R, LFE
Sampling rate                            : 48.0 KHz
Bit depth                                : 16 bits
Compression mode                         : Lossy
Stream size                              : 394 MiB (19%)
Alignment                                : Split accross interleaves
Interleave, duration                     : 42 ms (1.00 video frame)
Interleave, preload duration             : 500 ms

Audio #2
ID                                       : 2
Format                                   : AC-3
Format/Info                              : Audio Coding 3
Mode extension                           : CM (complete main)
Codec ID                                 : 2000
Duration                                 : 2h 2mn
Bit rate mode                            : Constant
Bit rate                                 : 448 Kbps
Channel(s)                               : 6 channels
Channel positions                        : Front: L C R, Side: L R, LFE
Sampling rate                            : 48.0 KHz
Bit depth                                : 16 bits
Compression mode                         : Lossy
Stream size                              : 394 MiB (19%)
Alignment                                : Split accross interleaves
Interleave, duration                     : 42 ms (1.00 video frame)
Interleave, preload duration             : 500 ms


[/spoiler]

[/center]

Info: Per scaricare devi usare un client come uTorrent o Transmission
AnnounceURL
udp://tracker.coppersurfer.tk:6969/announce
Hash 6cd1cfbf238460474fdc28cbd4be97fc213c1460
Peers seeds: 4 , leech: 2
Size 2.07 GB
Completato 2446x
Aggiunto 16.08.17 - 04:08:57
Uploader   robbyrs
Votazione (Voti: 0)


Condividi questo bittorrent:


html/blog:


bbcode/forum:




Aggiungi Commento


counter