* Dettagli Torrent   globale  | Commenti (0) 


- L ottava nota - Fuori dal coro (2014).H264.Italian.English.Ac3.5.1.sub.ita.iCV-MIRCrew -


Download via torrent:
Categoria bittorrent BDRip
Descrizione
Boychoir - L ottava nota - Fuori dal coro  (2014).H264.Italian.English.Ac3.5.1.sub.ita.iCV-MIRCrew

[center]by www.icv-crew.org


NO FOUND ONLY ORIGINAL RELEASE



My release is always in double track audio italian and Original audio
for select it use VLC or dvd player home
not use wmp

L'ottava nota - Fuori dal coro - Boychoir (2014)

PRESENTI ANCHE i SOTTOTITOLI

ESTERNI IN SRT (ita)







Titolo originale Boychoir
Lingua originale inglese
Paese di produzione Stati Uniti d'America
Anno 2014
Durata 103 min
Genere drammatico
Regia François Girard
Produttore Carol Baum, Judy Cairo, Jane Goldenring
Casa di produzione Informant Films, Informant Media
Distribuzione (Italia) Koch Media
Fotografia David Franco
Montaggio Gaetan Huot
Musiche Brian Byrne
Scenografia Richard A. Wright




   Dustin Hoffman: Carvelle
   Garrett Wareing: Stet
   Kathy Bates: direttrice
   Eddie Izzard: Drake
   Kevin McHale: Wooly
   Josh Lucas: Gerard
   Debra Winger: Sig.ra Steel
   River Alexander: Rafael "Raffi" Abrams




Il film racconta di Stet, un problematico ragazzino di 12 anni proveniente da una piccola città del Texas che finisce in un'accademia di musica d'élite specializzata nelle voci bianche, la fittizia National Boychoir Academy, dopo la morte della madre single che aveva problemi con l'alcool. ...................



Stet, a troubled and angry 11-year-old orphan from a small Texas town, ends up at a Boy Choir school back East after the death of his single mom. Completely out of his element, he finds ..












[spoiler]
General
Unique ID                                : 247958730281410427249596005251604248347 (0xBA8B1D46D6000CAC7F448AAB8147771B)
Complete name                            : Fuori dal coro - Boychoir (2014).H264.ita.eng.sub.ita.iCV-MIRCrew.mkv
Format                                   : Matroska
Format version                           : Version 2
File size                                : 1.60 GiB
Duration                                 : 1h 42mn
Overall bit rate                         : 2 221 Kbps
Movie name                               : www.icv-crew.org
Encoded date                             : UTC 2017-08-06 15:27:32
Writing application                      : Lavf54.63.100
Writing library                          : Lavf54.63.100
COPYRIGHT                                : robbyrs
DATE                                     : 2017

Video
ID                                       : 1
Format                                   : AVC
Format/Info                              : Advanced Video Codec
Format profile                           : [email protected]
Format settings, CABAC                   : Yes
Format settings, ReFrames                : 2 frames
Codec ID                                 : V_MPEG4/ISO/AVC
Duration                                 : 1h 42mn
Bit rate                                 : 1 300 Kbps
Width                                    : 720 pixels
Height                                   : 304 pixels
Display aspect ratio                     : 2.40:1
Frame rate mode                          : Variable
Frame rate                               : 24.000 fps
Color space                              : YUV
Chroma subsampling                       : 4:2:0
Bit depth                                : 8 bits
Scan type                                : Progressive
Bits/(Pixel*Frame)                       : 0.247
Stream size                              : 942 MiB (58%)
Title                                    : TbZ
Writing library                          : x264 core 130 r2273
Encoding settings                        : cabac=1 / ref=2 / deblock=1:0:0 / analyse=0x1:0x131 / me=hex / subme=7 / psy=1 / psy_rd=1.00:0.00 / mixed_ref=0 / me_range=16 / chroma_me=1 / trellis=1 / 8x8dct=0 / cqm=0 / deadzone=21,11 / fast_pskip=1 / chroma_qp_offset=-2 / threads=12 / lookahead_threads=2 / sliced_threads=0 / nr=0 / decimate=1 / interlaced=0 / bluray_compat=0 / constrained_intra=0 / bframes=3 / b_pyramid=0 / b_adapt=1 / b_bias=0 / direct=3 / weightb=1 / open_gop=0 / weightp=2 / keyint=240 / keyint_min=24 / scenecut=40 / intra_refresh=0 / rc_lookahead=40 / rc=abr / mbtree=1 / bitrate=1300 / ratetol=1.0 / qcomp=0.60 / qpmin=10 / qpmax=69 / qpstep=4 / vbv_maxrate=24000 / vbv_bufsize=24000 / nal_hrd=none / ip_ratio=1.40 / aq=1:1.00
Language                                 : Italian
Default                                  : Yes
Forced                                   : No
DURATION                                 : 01:42:48.750000000
NUMBER_OF_FRAMES                         : 148050
NUMBER_OF_BYTES                          : 2227107546
_STATISTICS_WRITING_APP                  : mkvmerge v9.7.1 ('Pandemonium') 64bit
_STATISTICS_WRITING_DATE_UTC             : 2017-01-02 18:48:01
_STATISTICS_TAGS                         : BPS DURATION NUMBER_OF_FRAMES NUMBER_OF_BYTES

Audio #1
ID                                       : 2
Format                                   : AC-3
Format/Info                              : Audio Coding 3
Mode extension                           : CM (complete main)
Codec ID                                 : A_AC3
Duration                                 : 1h 42mn
Bit rate mode                            : Constant
Bit rate                                 : 448 Kbps
Channel(s)                               : 6 channels
Channel positions                        : Front: L C R, Side: L R, LFE
Sampling rate                            : 48.0 KHz
Bit depth                                : 16 bits
Compression mode                         : Lossy
Delay relative to video                  : 1mn 5s
Stream size                              : 329 MiB (20%)
Title                                    : ITA DTS 5.1
Language                                 : Italian
Default                                  : Yes
Forced                                   : No
DURATION                                 : 01:42:48.758000000
NUMBER_OF_FRAMES                         : 578321
NUMBER_OF_BYTES                          : 1163581852
_STATISTICS_WRITING_APP                  : mkvmerge v9.7.1 ('Pandemonium') 64bit
_STATISTICS_WRITING_DATE_UTC             : 2017-01-02 18:48:01
_STATISTICS_TAGS                         : BPS DURATION NUMBER_OF_FRAMES NUMBER_OF_BYTES

Audio #2
ID                                       : 3
Format                                   : AC-3
Format/Info                              : Audio Coding 3
Mode extension                           : CM (complete main)
Codec ID                                 : A_AC3
Duration                                 : 1h 42mn
Bit rate mode                            : Constant
Bit rate                                 : 448 Kbps
Channel(s)                               : 6 channels
Channel positions                        : Front: L C R, Side: L R, LFE
Sampling rate                            : 48.0 KHz
Bit depth                                : 16 bits
Compression mode                         : Lossy
Delay relative to video                  : 1mn 5s
Stream size                              : 329 MiB (20%)
Title                                    : ENG AC3 5.1
Language                                 : English
Default                                  : No
Forced                                   : No
DURATION                                 : 01:42:48.768000000
NUMBER_OF_FRAMES                         : 192774
NUMBER_OF_BYTES                          : 493501440
_STATISTICS_WRITING_APP                  : mkvmerge v9.7.1 ('Pandemonium') 64bit
_STATISTICS_WRITING_DATE_UTC             : 2017-01-02 18:48:01
_STATISTICS_TAGS                         : BPS DURATION NUMBER_OF_FRAMES NUMBER_OF_BYTES

Text #1
ID                                       : 4
Format                                   : VobSub
Codec ID                                 : S_VOBSUB
Codec ID/Info                            : The same subtitle format used on DVDs
Title                                    : ITA
Language                                 : Italian
Default                                  : No
Forced                                   : No
DURATION                                 : 01:35:38.950000000
NUMBER_OF_FRAMES                         : 830
NUMBER_OF_BYTES                          : 4523017
_STATISTICS_WRITING_APP                  : mkvmerge v9.7.1 ('Pandemonium') 64bit
_STATISTICS_WRITING_DATE_UTC             : 2017-01-02 18:48:01
_STATISTICS_TAGS                         : BPS DURATION NUMBER_OF_FRAMES NUMBER_OF_BYTES

Text #2
ID                                       : 5
Format                                   : VobSub
Codec ID                                 : S_VOBSUB
Codec ID/Info                            : The same subtitle format used on DVDs
Title                                    : ITA
Language                                 : Italian
Default                                  : No
Forced                                   : No
DURATION                                 : 01:35:38.950000000
NUMBER_OF_FRAMES                         : 830
NUMBER_OF_BYTES                          : 4523017
_STATISTICS_WRITING_APP                  : mkvmerge v9.7.1 ('Pandemonium') 64bit
_STATISTICS_WRITING_DATE_UTC             : 2017-01-02 18:48:01
_STATISTICS_TAGS                         : BPS DURATION NUMBER_OF_FRAMES NUMBER_OF_BYTES

Menu
00:00:00.000                             : :00:00:00.000
00:05:49.000                             : :00:05:49.000
00:11:37.167                             : :00:11:37.167
00:19:27.125                             : :00:19:27.125
00:26:03.875                             : :00:26:03.875
00:32:11.167                             : :00:32:11.167
00:39:12.500                             : :00:39:12.500
00:45:56.292                             : :00:45:56.292
00:49:41.625                             : :00:49:41.625
00:55:12.667                             : :00:55:12.667
01:01:21.458                             : :01:01:21.458
01:09:17.208                             : :01:09:17.208
01:15:39.958                             : :01:15:39.958
01:23:40.417                             : :01:23:40.417
01:30:28.500                             : :01:30:28.500
01:36:18.333                             : :01:36:18.333



[/spoiler]

[/center]

Info: Per scaricare devi usare un client come uTorrent o Transmission
AnnounceURL
udp://tracker.coppersurfer.tk:6969/announce
Hash 6f47a9639f930f0c18295f6479a84c5929743ced
Peers seeds: 39 , leech: 11
Size 1.60 GB
Completato 500x
Aggiunto 16.08.17 - 04:08:34
Uploader   robbyrs
Votazione (Voti: 1)


Condividi questo bittorrent:


html/blog:


bbcode/forum:




Aggiungi Commento


counter