* Dettagli Torrent   globale  | Commenti (0) 


- La meccanica delle ombre - La mécanique de lombre (2016).H264.Italian.FrenchAc3.5.1.sub.ita.fre.iCV -


Download via torrent:
Categoria bittorrent BDRip
Descrizione
La meccanica delle ombre (2016).H264.Italian.FrenchAc3.5.1.sub.ita.fre.iCV-MIRCrew


[center]by www.icv-crew.org


NO FOUND ONLY ORIGINAL RELEASE



My release is always in double track audio italian and Original audio
for select it use VLC or dvd player home
not use wmp

La meccanica delle ombre - La mécanique de l'ombre (2016)

PRESENTI ANCHE i SOTTOTITOLI

ESTERNI IN SRT (ita)








   DATA USCITA: 06 aprile 2017
   GENERE: Thriller
   ANNO: 2016
   REGIA: Thomas Kruithof
   
   PAESE: Belgio, Francia
   DURATA: 93 Min
   DISTRIBUZIONE: Europictures




François Cluzet, Alba Rohrwacher, Denis Podalydes, Sami Bouajila, Simon Abkarian, Daniel Hanssens, Bruno Georis



Il film racconta di Duval (François Cluzet), contabile ex alcolista, riflessivo e meticoloso. Da tempo ha qualche difficoltà a trovare un nuovo posto di lavoro. Così, quando una misteriosa organizzazione gli chiede di trascrivere delle intercettazioni telefoniche, accetta senza porre domande: rimarrà invischiato in un pericoloso intrigo che vede coinvolti i servizi segreti e le alte sfere del governo francese...................



The unemployed Duval is contacted by a mysterious organization to transcribe intercepted calls. He accepts the job with no suspicions, since it restores stability to his life, but it will soon result in political shenanigans of all kinds.











[spoiler]
General
Unique ID                                : 252814527034611408217574322584765599515 (0xBE324E8A6489D7031D1A2F0099340F1B)
Complete name                            : La meccanica delle ombre (2016).Ita.fre.sub.ita.fre.iCV-MIRCrew.mkv
Format                                   : Matroska
Format version                           : Version 2
File size                                : 1.40 GiB
Duration                                 : 1h 30mn
Overall bit rate                         : 2 202 Kbps
Movie name                               : www.icv-crew.org
Encoded date                             : UTC 2017-08-06 08:31:09
Writing application                      : Lavf54.63.100
Writing library                          : Lavf54.63.100
COPYRIGHT                                : robbyrs
DATE                                     : 2017

Video
ID                                       : 1
Format                                   : AVC
Format/Info                              : Advanced Video Codec
Format profile                           : [email protected]
Format settings, CABAC                   : Yes
Format settings, ReFrames                : 2 frames
Codec ID                                 : V_MPEG4/ISO/AVC
Duration                                 : 1h 30mn
Bit rate                                 : 1 290 Kbps
Width                                    : 720 pixels
Height                                   : 304 pixels
Display aspect ratio                     : 2.40:1
Frame rate mode                          : Variable
Frame rate                               : 24.000 fps
Color space                              : YUV
Chroma subsampling                       : 4:2:0
Bit depth                                : 8 bits
Scan type                                : Progressive
Bits/(Pixel*Frame)                       : 0.246
Stream size                              : 820 MiB (57%)
Writing library                          : x264 core 130 r2273
Encoding settings                        : cabac=1 / ref=2 / deblock=1:0:0 / analyse=0x1:0x131 / me=hex / subme=7 / psy=1 / psy_rd=1.00:0.00 / mixed_ref=0 / me_range=16 / chroma_me=1 / trellis=1 / 8x8dct=0 / cqm=0 / deadzone=21,11 / fast_pskip=1 / chroma_qp_offset=-2 / threads=12 / lookahead_threads=2 / sliced_threads=0 / nr=0 / decimate=1 / interlaced=0 / bluray_compat=0 / constrained_intra=0 / bframes=3 / b_pyramid=0 / b_adapt=1 / b_bias=0 / direct=3 / weightb=1 / open_gop=0 / weightp=2 / keyint=240 / keyint_min=24 / scenecut=40 / intra_refresh=0 / rc_lookahead=40 / rc=abr / mbtree=1 / bitrate=1290 / ratetol=1.0 / qcomp=0.60 / qpmin=10 / qpmax=69 / qpstep=4 / vbv_maxrate=24000 / vbv_bufsize=24000 / nal_hrd=none / ip_ratio=1.40 / aq=1:1.00
Language                                 : Italian
Default                                  : Yes
Forced                                   : No
DURATION                                 : 01:30:46.709000000
NUMBER_OF_FRAMES                         : 130721
NUMBER_OF_BYTES                          : 6369213726
_STATISTICS_WRITING_APP                  : mkvmerge v8.7.0 ('All of the above') 64bit
_STATISTICS_WRITING_DATE_UTC             : 2017-07-21 13:27:25
_STATISTICS_TAGS                         : BPS DURATION NUMBER_OF_FRAMES NUMBER_OF_BYTES

Audio #1
ID                                       : 2
Format                                   : AC-3
Format/Info                              : Audio Coding 3
Mode extension                           : CM (complete main)
Codec ID                                 : A_AC3
Duration                                 : 1h 30mn
Bit rate mode                            : Constant
Bit rate                                 : 448 Kbps
Channel(s)                               : 6 channels
Channel positions                        : Front: L C R, Side: L R, LFE
Sampling rate                            : 48.0 KHz
Bit depth                                : 16 bits
Compression mode                         : Lossy
Delay relative to video                  : 1mn 5s
Stream size                              : 291 MiB (20%)
Title                                    : AC3 ITA
Language                                 : Italian
Default                                  : Yes
Forced                                   : No
DURATION                                 : 01:30:47.456000000
NUMBER_OF_FRAMES                         : 170233
NUMBER_OF_BYTES                          : 305057536
_STATISTICS_WRITING_APP                  : mkvmerge v8.7.0 ('All of the above') 64bit
_STATISTICS_WRITING_DATE_UTC             : 2017-07-21 13:27:25
_STATISTICS_TAGS                         : BPS DURATION NUMBER_OF_FRAMES NUMBER_OF_BYTES

Audio #2
ID                                       : 3
Format                                   : AC-3
Format/Info                              : Audio Coding 3
Mode extension                           : CM (complete main)
Codec ID                                 : A_AC3
Duration                                 : 1h 30mn
Bit rate mode                            : Constant
Bit rate                                 : 448 Kbps
Channel(s)                               : 6 channels
Channel positions                        : Front: L C R, Side: L R, LFE
Sampling rate                            : 48.0 KHz
Bit depth                                : 16 bits
Compression mode                         : Lossy
Delay relative to video                  : 1mn 5s
Stream size                              : 291 MiB (20%)
Title                                    : AC3 FRE
Language                                 : French
Default                                  : No
Forced                                   : No
DURATION                                 : 01:30:47.424000000
NUMBER_OF_FRAMES                         : 170232
NUMBER_OF_BYTES                          : 435793920
_STATISTICS_WRITING_APP                  : mkvmerge v8.7.0 ('All of the above') 64bit
_STATISTICS_WRITING_DATE_UTC             : 2017-07-21 13:27:25
_STATISTICS_TAGS                         : BPS DURATION NUMBER_OF_FRAMES NUMBER_OF_BYTES

Text #1
ID                                       : 4
Format                                   : ASS
Codec ID                                 : S_TEXT/ASS
Codec ID/Info                            : Advanced Sub Station Alpha
Compression mode                         : Lossless
Title                                    : Forced
Language                                 : Italian
Default                                  : Yes
Forced                                   : No
DURATION                                 : 01:29:46.500000000
NUMBER_OF_FRAMES                         : 11
NUMBER_OF_BYTES                          : 415
_STATISTICS_WRITING_APP                  : mkvmerge v8.7.0 ('All of the above') 64bit
_STATISTICS_WRITING_DATE_UTC             : 2017-07-21 13:27:25
_STATISTICS_TAGS                         : BPS DURATION NUMBER_OF_FRAMES NUMBER_OF_BYTES

Text #2
ID                                       : 5
Format                                   : ASS
Codec ID                                 : S_TEXT/ASS
Codec ID/Info                            : Advanced Sub Station Alpha
Compression mode                         : Lossless
Title                                    : Regular
Language                                 : Italian
Default                                  : No
Forced                                   : No
DURATION                                 : 01:27:23.786000000
NUMBER_OF_FRAMES                         : 859
NUMBER_OF_BYTES                          : 26906
_STATISTICS_WRITING_APP                  : mkvmerge v8.7.0 ('All of the above') 64bit
_STATISTICS_WRITING_DATE_UTC             : 2017-07-21 13:27:25
_STATISTICS_TAGS                         : BPS DURATION NUMBER_OF_FRAMES NUMBER_OF_BYTES

Text #3
ID                                       : 6
Format                                   : ASS
Codec ID                                 : S_TEXT/ASS
Codec ID/Info                            : Advanced Sub Station Alpha
Compression mode                         : Lossless
Title                                    : Regular
Language                                 : French
Default                                  : No
Forced                                   : No
DURATION                                 : 01:30:37.750000000
NUMBER_OF_FRAMES                         : 1029
NUMBER_OF_BYTES                          : 33777
_STATISTICS_WRITING_APP                  : mkvmerge v8.7.0 ('All of the above') 64bit
_STATISTICS_WRITING_DATE_UTC             : 2017-07-21 13:27:25
_STATISTICS_TAGS                         : BPS DURATION NUMBER_OF_FRAMES NUMBER_OF_BYTES

Menu
00:00:00.000                             : :00:00:00.000
00:07:05.342                             : :00:07:05.342
00:14:28.201                             : :00:14:28.201
00:20:13.838                             : :00:20:13.838
00:29:27.099                             : :00:29:27.099
00:39:02.590                             : :00:39:02.590
00:50:56.804                             : :00:50:56.804
00:59:52.756                             : :00:59:52.756
01:08:53.129                             : :01:08:53.129
01:16:19.950                             : :01:16:19.950
01:23:27.706                             : :01:23:27.706


[/spoiler]

[/center]

Info: Per scaricare devi usare un client come uTorrent o Transmission
AnnounceURL
udp://tracker.coppersurfer.tk:6969/announce
Hash 360e3533b49dbc10919188bdd99a4ef5198adedd
Peers seeds: 49 , leech: 6
Size 1.40 GB
Completato 1021x
Aggiunto 09.08.17 - 09:08:16
Uploader   robbyrs
Votazione (Voti: 0)


Condividi questo bittorrent:


html/blog:


bbcode/forum:




Aggiungi Commento


counter