* Dettagli Torrent   globale  | Commenti (0) 


- Game.of.Thrones.7x03.La.Giustizia.Della.Regina.ITA.ENG.1080p.AMZN.WEB-DLMux.H.264-Morpheus.mkv -


Download via torrent:
Categoria bittorrent SerieTv
Descrizione
[center]
GIUSEPPEiCV & LITTLELINX
HANNO IL PIACERE DI PRESENTARE


IL TRONO DI SPADE
Stagione 7
WEBMUX 1080p

Dual Language ITA - ENG
Sub ITA - ENG
Trovi tutte le nostre serie su
IL CORSARO VERDE
www.icv-crew.org



.: Dati Serie :.


Nazione: Stati Uniti d'America
Anno: 2017
Genere: fantastico, avventura, drammatico, epico
Stagione 7
Episodi: 7
Durata: 60 min circa
Lingua: ITA - ENG
Ideatore: David Benioff, D.B. Weiss
Cast:
• Peter Dinklage,Nikolaj Coster-Waldau,Lena Headey, Emilia Clarke, Kit Harington, Aidan Gillen,
Liam Cunningham, Sophie Turner,  Maisie Williams, Carice van Houten, Nathalie Emmanuel, Indira Varma,
Alfie Allen, Gwendoline Christie,Conleth Hill •


Nine noble families fight for control over the mythical lands of Westeros, while a forgotten race returns after being dormant for thousands of years.

Torna finalmente Il Trono di Spade, e lo fa con una premiére che tira le fila di quanto successo nel finale della sesta stagione e che, allo stesso tempo, getta le basi per una serie di possibili scenari. Gli equilibri sono ormai definitivamente cambiati, gli scontri futuri sono tutto sommato ben delineati, e la sensazione che si ha è proprio quella dell’inizio della fine. Dall’arrivo di Daenerys a Westeros alle prime discussioni tra Jon e Sansa, passando ovviamente per la lucidissima follia di Cersei,


.: Screenshot :.

 


.: Caratteristiche Tecniche :.[/center]

Code

Game.of.Thrones.7x01..Roccia.Del.Drago.ITA.ENG.1080p.AMZN.WEBMux.x264-Morpheus.mkv
Format                                   : Matroska
Format version                           : Version 4 / Version 2
File size                                : 3.47 GiB
Duration                                 : 58mn 56s
Overall bit rate mode                    : Variable
Overall bit rate                         : 8 423 Kbps
Encoded date                             : UTC 2017-07-24 22:12:56
Writing application                      : mkvmerge v7.6.0 ('Garden of Dreams') 64bit built on Feb  8 2015 15:12:28
Writing library                          : libebml v1.3.1 + libmatroska v1.4.2
DURATION                                 : 00:37:11.800000000
NUMBER_OF_FRAMES                         : 55
NUMBER_OF_BYTES                          : 2387
_STATISTICS_WRITING_APP                  : mkvmerge v7.6.0 ('Garden of Dreams') 64bit built on Feb  8 2015 15:12:28
_STATISTICS_WRITING_DATE_UTC             : 2017-07-24 22:12:56
_STATISTICS_TAGS                         : BPS DURATION NUMBER_OF_FRAMES NUMBER_OF_BYTES

Video
ID                                       : 1
Format                                   : AVC
Format/Info                              : Advanced Video Codec
Format profile                           : [email protected]
Format settings, CABAC                   : Yes
Format settings, ReFrames                : 4 frames
Codec ID                                 : V_MPEG4/ISO/AVC
Duration                                 : 58mn 57s
Bit rate mode                            : Variable
Bit rate                                 : 7 680 Kbps
Maximum bit rate                         : 15.0 Mbps
Width                                    : 1 920 pixels
Height                                   : 1 080 pixels
Display aspect ratio                     : 16:9
Frame rate                               : 25.000 fps
Original frame rate                      : 23.976 fps
Color space                              : YUV
Chroma subsampling                       : 4:2:0
Bit depth                                : 8 bits
Scan type                                : Progressive
Bits/(Pixel*Frame)                       : 0.148
Stream size                              : 3.16 GiB (91%)
Default                                  : Yes
Forced                                   : No
Color primaries                          : BT.709-5, BT.1361, IEC 61966-2-4, SMPTE RP177
Transfer characteristics                 : BT.709-5, BT.1361
Matrix coefficients                      : BT.709-5, BT.1361, IEC 61966-2-4 709, SMPTE RP177

Audio #1
ID                                       : 2
Format                                   : AC-3
Format/Info                              : Audio Coding 3
Mode extension                           : CM (complete main)
Codec ID                                 : A_AC3
Duration                                 : 58mn 56s
Bit rate mode                            : Constant
Bit rate                                 : 192 Kbps
Channel(s)                               : 2 channels
Channel positions                        : Front: L R
Sampling rate                            : 48.0 KHz
Bit depth                                : 16 bits
Compression mode                         : Lossy
Stream size                              : 81.0 MiB (2%)
Title                                    : ITA
Language                                 : Italian
Default                                  : Yes
Forced                                   : Yes

Audio #2
ID                                       : 3
Format                                   : AC-3
Format/Info                              : Audio Coding 3
Mode extension                           : CM (complete main)
Codec ID                                 : A_AC3
Duration                                 : 58mn 56s
Bit rate mode                            : Constant
Bit rate                                 : 384 Kbps
Channel(s)                               : 6 channels
Channel positions                        : Front: L C R, Side: L R, LFE
Sampling rate                            : 48.0 KHz
Bit depth                                : 16 bits
Compression mode                         : Lossy
Stream size                              : 162 MiB (5%)
Title                                    : ENG
Language                                 : English
Default                                  : No
Forced                                   : No

Text #1
ID                                       : 4
Format                                   : UTF-8
Codec ID                                 : S_TEXT/UTF8
Codec ID/Info                            : UTF-8 Plain Text
Title                                    : ITA - Forced
Language                                 : Italian
Default                                  : Yes
Forced                                   : Yes

Text #2
ID                                       : 5
Format                                   : UTF-8
Codec ID                                 : S_TEXT/UTF8
Codec ID/Info                            : UTF-8 Plain Text
Language                                 : Italian
Default                                  : No
Forced                                   : No

Text #3
ID                                       : 6
Format                                   : UTF-8
Codec ID                                 : S_TEXT/UTF8
Codec ID/Info                            : UTF-8 Plain Text
Language                                 : English
Default                                  : No
Forced                                   : No


[center].: Ringraziamenti :.



[/center]

Info: Per scaricare devi usare un client come uTorrent o Transmission
AnnounceURL
http://tracker.tntvillage.scambioetico.org:2710/announce
Hash 5bdea8049bd501b7c777147776e34a6b7969e455
Peers seeds: 337 , leech: 127
Size 4.20 GB
Completato 7029x
Aggiunto 08.08.17 - 09:08:19
Uploader   ppb1
Votazione (Voti: 1)


Condividi questo bittorrent:


html/blog:


bbcode/forum:




Aggiungi Commento


counter