* Dettagli Torrent   globale  | Commenti (1) 


- Falchi (2017).H264.Italian.Ac3.5.1.iCV-MIRCrew -


Download via torrent:
Categoria bittorrent BDRip
Descrizione
Falchi (2017).H264.Italian.Ac3.5.1.iCV-MIRCrew


[center]by www.icv-crew.org


NO FOUND ONLY ORIGINAL RELEASE



My release is always in double track audio italian and Original audio
for select it use VLC or dvd player home
not use wmp

Falchi (2017)








   DATA USCITA: 02 marzo 2017
   GENERE: Poliziesco
   ANNO: 2017
   REGIA: Toni D'Angelo (II)
   
   PAESE: Italia
   DURATA: 97 Min
   DISTRIBUZIONE: Koch Media




Fortunato Cerlino, Michele Riondino, Pippo Delbono, Stefania Sandrelli, Aniello Arena, Fabrizia Sacchi, Gaetano Amato, Wang Xiaoyan



Duri, spregiudicati, spietati. Peppe e Francesco sono cosi`, due falchi, agenti della sezione speciale della Squadra Mobile di Napoli, una sezione preposta per affiancare le indagini sulla criminalita` organizzata. A bordo della loro moto e sotto la guida dell'efficiente capo della squadra Mobile, il dottor Marino, con il quale hanno un rapporto quasi paterno.........



Hard, controversial, ruthless. Peppe and Francesco are like this, two hawks, agents of the special section of the Mobile Team in Naples, a section dedicated to supporting organized crime investigations. On board their bike and under the leadership of the efficient team leader Mobile, Dr. Marino, with whom they have an almost paternal relationship .........












[spoiler]
General
Unique ID                                : 209854907314959340020070945708247712572 (0x9DE095C2648EEA430DDD92D319C1833C)
Complete name                            : Falchi (2017).H264.ita.iCV-MIRCrew.mkv
Format                                   : Matroska
Format version                           : Version 2
File size                                : 1.19 GiB
Duration                                 : 1h 38mn
Overall bit rate                         : 1 736 Kbps
Movie name                               : www.icv-crew.org
Encoded date                             : UTC 2017-08-06 09:59:02
Writing application                      : Lavf54.63.100
Writing library                          : Lavf54.63.100
COPYRIGHT                                : robbyrs
DATE                                     : 2017

Video
ID                                       : 1
Format                                   : AVC
Format/Info                              : Advanced Video Codec
Format profile                           : [email protected]
Format settings, CABAC                   : Yes
Format settings, ReFrames                : 2 frames
Codec ID                                 : V_MPEG4/ISO/AVC
Duration                                 : 1h 38mn
Bit rate                                 : 1 290 Kbps
Width                                    : 720 pixels
Height                                   : 304 pixels
Display aspect ratio                     : 2.40:1
Frame rate mode                          : Variable
Frame rate                               : 24.000 fps
Color space                              : YUV
Chroma subsampling                       : 4:2:0
Bit depth                                : 8 bits
Scan type                                : Progressive
Bits/(Pixel*Frame)                       : 0.246
Stream size                              : 881 MiB (72%)
Writing library                          : x264 core 130 r2273
Encoding settings                        : cabac=1 / ref=2 / deblock=1:0:0 / analyse=0x1:0x131 / me=hex / subme=7 / psy=1 / psy_rd=1.00:0.00 / mixed_ref=0 / me_range=16 / chroma_me=1 / trellis=1 / 8x8dct=0 / cqm=0 / deadzone=21,11 / fast_pskip=1 / chroma_qp_offset=-2 / threads=12 / lookahead_threads=2 / sliced_threads=0 / nr=0 / decimate=1 / interlaced=0 / bluray_compat=0 / constrained_intra=0 / bframes=3 / b_pyramid=0 / b_adapt=1 / b_bias=0 / direct=3 / weightb=1 / open_gop=0 / weightp=2 / keyint=240 / keyint_min=24 / scenecut=40 / intra_refresh=0 / rc_lookahead=40 / rc=abr / mbtree=1 / bitrate=1290 / ratetol=1.0 / qcomp=0.60 / qpmin=10 / qpmax=69 / qpstep=4 / vbv_maxrate=24000 / vbv_bufsize=24000 / nal_hrd=none / ip_ratio=1.40 / aq=1:1.00
Language                                 : Italian
Default                                  : Yes
Forced                                   : No
DURATION                                 : 01:38:18.792000000
NUMBER_OF_FRAMES                         : 141571
NUMBER_OF_BYTES                          : 6485503299
_STATISTICS_WRITING_APP                  : mkvmerge v9.5.0 ('Quiet Fire') 32bit
_STATISTICS_WRITING_DATE_UTC             : 2017-06-29 14:03:09
_STATISTICS_TAGS                         : BPS DURATION NUMBER_OF_FRAMES NUMBER_OF_BYTES

Audio
ID                                       : 2
Format                                   : AC-3
Format/Info                              : Audio Coding 3
Mode extension                           : CM (complete main)
Codec ID                                 : A_AC3
Duration                                 : 1h 38mn
Bit rate mode                            : Constant
Bit rate                                 : 448 Kbps
Channel(s)                               : 6 channels
Channel positions                        : Front: L C R, Side: L R, LFE
Sampling rate                            : 48.0 KHz
Bit depth                                : 16 bits
Compression mode                         : Lossy
Delay relative to video                  : 1mn 5s
Stream size                              : 315 MiB (26%)
Language                                 : Italian
Default                                  : No
Forced                                   : No
DURATION                                 : 01:38:18.816000000
NUMBER_OF_FRAMES                         : 184338
NUMBER_OF_BYTES                          : 471905280
_STATISTICS_WRITING_APP                  : mkvmerge v9.5.0 ('Quiet Fire') 32bit
_STATISTICS_WRITING_DATE_UTC             : 2017-06-29 14:03:09
_STATISTICS_TAGS                         : BPS DURATION NUMBER_OF_FRAMES NUMBER_OF_BYTES

Menu
00:00:00.000                             : :00:00:00.000
00:03:15.250                             : :00:03:15.250
00:06:16.792                             : :00:06:16.792
00:10:28.042                             : :00:10:28.042
00:19:09.250                             : :00:19:09.250
00:25:15.750                             : :00:25:15.750
00:31:29.625                             : :00:31:29.625
00:36:58.042                             : :00:36:58.042
00:44:44.042                             : :00:44:44.042
00:48:09.125                             : :00:48:09.125
00:56:41.708                             : :00:56:41.708
01:03:10.792                             : :01:03:10.792
01:11:51.875                             : :01:11:51.875
01:20:14.708                             : :01:20:14.708
01:25:58.917                             : :01:25:58.917
01:33:32.333                             : :01:33:32.333



[/spoiler]

[/center]

Info: Per scaricare devi usare un client come uTorrent o Transmission
AnnounceURL
udp://tracker.coppersurfer.tk:6969/announce
Hash 08e88852a48be3e5030f8592aa54fcff94f0ae4b
Peers seeds: 120 , leech: 10
Size 1.19 GB
Completato 2767x
Aggiunto 07.08.17 - 09:08:07
Uploader   robbyrs
Votazione (Voti: 1)


Condividi questo bittorrent:


html/blog:


bbcode/forum:




Aggiungi Commento
Ultimi commenti
 jackal98jackal98   
grazie
08/08 01.39
Tutti commenti (1)


counter