* Dettagli Torrent   globale  | Commenti (0) 


- Il quinto elemento (1997).720p.H264.Italian.English.Ac3.5.1.sub.ita.eng.iCV-MIRCrew -


Download via torrent:
Categoria bittorrent BDRip
Descrizione
The Fifth Element - Il quinto elemento (1997).720p.H264.Italian.English.Ac3.5.1.sub.ita.eng.iCV-MIRCrew

[center]by www.icv-crew.org


NO FOUND ONLY ORIGINAL RELEASE



My release is always in double track audio italian and Original audio
for select it use VLC or dvd player home
not use wmp

Il quinto elemento - The Fifth Element (1997)








* BAFTA Film Award Best Special Effects (199
* Bogey Award in Silver
* 3 Premi César 1998 (su 8 nomination): miglior regista, migliore fotografia, migliore scenografia
* Golden Screen (199
* Lumiere Award - Best Director

Titolo originale: Le cinquième élément

Paese: Francia
Anno: 1997
Durata: 126'
Genere: fantascienza
Regia: Luc Besson
Soggetto: Luc Besson
Sceneggiatura: Luc Besson, Robert Mark Kamen
Fotografia: Thierry Arbogast
Montaggio: Sylvie Landra
Effetti speciali: Nick Allder, Jonathan Angell
Musiche: Mark A. Mangini, Cliff Martinez
Scenografia: Dan Weil



* Bruce Willis: Korben Dallas
* Gary Oldman: Jean-Baptiste Emanuel Zorg
* Ian Holm: Padre Vito Cornelius
* Milla Jovovich: Leeloo
* Chris Tucker: Ruby Rhod
* Luke Perry: Billy
* Brion James: Generale Munro
* Tom Lister Jr.: Presidente Lindberg
* Maïwenn Le Besco: Lady Plavalaguna




Nel 2413, in una Manhattan con macchine volanti che sfrecciano tra i grattacieli, un muscoloso tassista (B. Willis) di Brooklyn si coalizza con una bella guerriera (M. Jovovich), tornata in vita dopo cinquemila anni, per salvare la Terra dalla malvagità di un guerrafondaio (G. Oldman). Costato 90 milioni di dollari (dichiarati dalla Gaumont che l'ha prodotto), è il film più costoso nella storia del cinema francese sonoro e ha vinto la scommessa al botteghino contro i megaprodotti di Hollywood.............



In the colorful future, a cab driver unwittingly becomes the central figure in the search for a legendary cosmic weapon to keep Evil and Mr Zorg at bay.  











[spoiler]
General
Unique ID                                : 182517000377007107717699954433454494425 (0x894F7EE22B89EC249656787C33F7D2D9)
Complete name                            : Il quinto elemento - The Fifth Element (1997).720p.H264.ita.eng.sub.ita.eng.iCV-MIRCrew.mkv
Format                                   : Matroska
Format version                           : Version 2
File size                                : 3.82 GiB
Duration                                 : 2h 6mn
Overall bit rate                         : 4 329 Kbps
Movie name                               : www.icv-crew.org
Encoded date                             : UTC 2017-08-04 19:33:31
Writing application                      : mkvmerge v5.4.0 ('Piper') built on Mar 10 2012 13:34:39
Writing library                          : Lavf54.63.100
COPYRIGHT                                : robbyrs
DATE                                     : 2017

Video
ID                                       : 1
Format                                   : AVC
Format/Info                              : Advanced Video Codec
Format profile                           : [email protected]
Format settings, CABAC                   : Yes
Format settings, ReFrames                : 2 frames
Muxing mode                              : Header stripping
Codec ID                                 : V_MPEG4/ISO/AVC
Duration                                 : 2h 6mn
Bit rate                                 : 3 500 Kbps
Width                                    : 1 280 pixels
Height                                   : 528 pixels
Display aspect ratio                     : 2.40:1
Frame rate mode                          : Variable
Frame rate                               : 24.000 fps
Color space                              : YUV
Chroma subsampling                       : 4:2:0
Bit depth                                : 8 bits
Scan type                                : Progressive
Bits/(Pixel*Frame)                       : 0.216
Stream size                              : 2.95 GiB (77%)
Title                                    : by www.icv-crew.org
Writing library                          : x264 core 130 r2273
Encoding settings                        : cabac=1 / ref=2 / deblock=1:0:0 / analyse=0x1:0x131 / me=hex / subme=7 / psy=1 / psy_rd=1.00:0.00 / mixed_ref=0 / me_range=16 / chroma_me=1 / trellis=1 / 8x8dct=0 / cqm=0 / deadzone=21,11 / fast_pskip=1 / chroma_qp_offset=-2 / threads=12 / lookahead_threads=2 / sliced_threads=0 / nr=0 / decimate=1 / interlaced=0 / bluray_compat=0 / constrained_intra=0 / bframes=3 / b_pyramid=0 / b_adapt=1 / b_bias=0 / direct=3 / weightb=1 / open_gop=0 / weightp=2 / keyint=240 / keyint_min=24 / scenecut=40 / intra_refresh=0 / rc_lookahead=40 / rc=abr / mbtree=1 / bitrate=3500 / ratetol=1.0 / qcomp=0.60 / qpmin=10 / qpmax=69 / qpstep=4 / vbv_maxrate=24000 / vbv_bufsize=24000 / nal_hrd=none / ip_ratio=1.40 / aq=1:1.00
Language                                 : Italian
Default                                  : Yes
Forced                                   : Yes
DURATION                                 : 02:05:41.459000000
NUMBER_OF_FRAMES                         : 180995
NUMBER_OF_BYTES                          : 15180039915
_STATISTICS_WRITING_APP                  : mkvmerge v14.0.0 ('Flow') 64bit
_STATISTICS_WRITING_DATE_UTC             : 2017-07-26 20:13:58
_STATISTICS_TAGS                         : BPS DURATION NUMBER_OF_FRAMES NUMBER_OF_BYTES

Audio #1
ID                                       : 2
Format                                   : AC-3
Format/Info                              : Audio Coding 3
Mode extension                           : CM (complete main)
Muxing mode                              : Header stripping
Codec ID                                 : A_AC3
Duration                                 : 2h 6mn
Bit rate mode                            : Constant
Bit rate                                 : 448 Kbps
Channel(s)                               : 6 channels
Channel positions                        : Front: L C R, Side: L R, LFE
Sampling rate                            : 48.0 KHz
Bit depth                                : 16 bits
Compression mode                         : Lossy
Delay relative to video                  : -5ms
Stream size                              : 405 MiB (10%)
Language                                 : Italian
Default                                  : Yes
Forced                                   : Yes
DURATION                                 : 02:06:22.464000000
NUMBER_OF_FRAMES                         : 236952
NUMBER_OF_BYTES                          : 606597120
_STATISTICS_WRITING_APP                  : mkvmerge v14.0.0 ('Flow') 64bit
_STATISTICS_WRITING_DATE_UTC             : 2017-07-26 20:13:58
_STATISTICS_TAGS                         : BPS DURATION NUMBER_OF_FRAMES NUMBER_OF_BYTES

Audio #2
ID                                       : 3
Format                                   : AC-3
Format/Info                              : Audio Coding 3
Mode extension                           : CM (complete main)
Muxing mode                              : Header stripping
Codec ID                                 : A_AC3
Duration                                 : 2h 6mn
Bit rate mode                            : Constant
Bit rate                                 : 448 Kbps
Channel(s)                               : 6 channels
Channel positions                        : Front: L C R, Side: L R, LFE
Sampling rate                            : 48.0 KHz
Bit depth                                : 16 bits
Compression mode                         : Lossy
Delay relative to video                  : -5ms
Stream size                              : 405 MiB (10%)
Language                                 : English
Default                                  : No
Forced                                   : No
DURATION                                 : 02:06:22.464000000
NUMBER_OF_FRAMES                         : 236952
NUMBER_OF_BYTES                          : 606597120
_STATISTICS_WRITING_APP                  : mkvmerge v14.0.0 ('Flow') 64bit
_STATISTICS_WRITING_DATE_UTC             : 2017-07-26 20:13:58
_STATISTICS_TAGS                         : BPS DURATION NUMBER_OF_FRAMES NUMBER_OF_BYTES

Text #1
ID                                       : 4
Format                                   : ASS
Codec ID                                 : S_TEXT/ASS
Codec ID/Info                            : Advanced Sub Station Alpha
Compression mode                         : Lossless
Title                                    : SUB ITA Forced
Language                                 : Italian
Default                                  : Yes
Forced                                   : Yes
DURATION                                 : 01:48:45.041000000
NUMBER_OF_FRAMES                         : 9
NUMBER_OF_BYTES                          : 119
_STATISTICS_WRITING_APP                  : mkvmerge v14.0.0 ('Flow') 64bit
_STATISTICS_WRITING_DATE_UTC             : 2017-07-26 20:13:58
_STATISTICS_TAGS                         : BPS DURATION NUMBER_OF_FRAMES NUMBER_OF_BYTES

Text #2
ID                                       : 5
Format                                   : ASS
Codec ID                                 : S_TEXT/ASS
Codec ID/Info                            : Advanced Sub Station Alpha
Compression mode                         : Lossless
Title                                    : SUB ITA
Language                                 : Italian
Default                                  : No
Forced                                   : No
DURATION                                 : 01:58:30.958000000
NUMBER_OF_FRAMES                         : 1043
NUMBER_OF_BYTES                          : 39643
_STATISTICS_WRITING_APP                  : mkvmerge v14.0.0 ('Flow') 64bit
_STATISTICS_WRITING_DATE_UTC             : 2017-07-26 20:13:58
_STATISTICS_TAGS                         : BPS DURATION NUMBER_OF_FRAMES NUMBER_OF_BYTES

Text #3
ID                                       : 6
Format                                   : ASS
Codec ID                                 : S_TEXT/ASS
Codec ID/Info                            : Advanced Sub Station Alpha
Compression mode                         : Lossless
Title                                    : SUB ENG
Language                                 : English
Default                                  : No
Forced                                   : No
DURATION                                 : 01:58:18.368000000
NUMBER_OF_FRAMES                         : 1424
NUMBER_OF_BYTES                          : 46439
_STATISTICS_WRITING_APP                  : mkvmerge v14.0.0 ('Flow') 64bit
_STATISTICS_WRITING_DATE_UTC             : 2017-07-26 20:13:58
_STATISTICS_TAGS                         : BPS DURATION NUMBER_OF_FRAMES NUMBER_OF_BYTES

Menu
00:00:00.000                             : :01. Main Title
00:02:37.157                             : :02. Egypt 1914
00:12:11.772                             : :03. 300 Years Later
00:24:17.539                             : :04. Nucleolab
00:32:14.682                             : :05. Leeloo Drops In On Korben
00:40:05.403                             : :06. Cornelius The Priest
00:47:23.465                             : :07. I Know Where The Stones Are
00:53:23.241                             : :08. Zorg Enterprises
01:00:16.613                             : :09. General Monroe
01:07:17.033                             : :10. Airport Departure
01:11:16.730                             : :11. Ruby Rhod
01:21:54.659                             : :12. Fhloston Paradise
01:27:25.698                             : :13. The Opera
01:38:29.778                             : :14. Mangalore Shoot-out
01:46:35.347                             : :15. Escape
01:52:26.364                             : :16. The Temple



[/spoiler]

[/center]

Info: Per scaricare devi usare un client come uTorrent o Transmission
AnnounceURL
udp://tracker.coppersurfer.tk:6969/announce
Hash 181d3d03081c3838691f9cce467098aa751c22b2
Peers seeds: 45 , leech: 12
Size 3.82 GB
Completato 1085x
Aggiunto 07.08.17 - 07:08:10
Uploader   robbyrs
Votazione (Voti: 1)


Condividi questo bittorrent:


html/blog:


bbcode/forum:




Aggiungi Commento


counter