* Dettagli Torrent   globale  | Commenti (0) 


- February - L innocenza del male (2015).H264.Italian.English.Ac3.5.1.sub.ita.iCV-MIRCrew -


Download via torrent:
Categoria bittorrent BDRip
Descrizione
The Blackcoat's Daughter - February - L'innocenza del male (2015).H264.Italian.English.Ac3.5.1.sub.ita.iCV-MIRCrew

[center]by www.icv-crew.org


NO FOUND ONLY ORIGINAL RELEASE



My release is always in double track audio italian and Original audio
for select it use VLC or dvd player home
not use wmp

February - L'innocenza del male - The Blackcoat's Daughter (2015)

PRESENTI ANCHE i SOTTOTITOLI

ESTERNI  (ita)







Titolo originale: The Blackcoat's Daughter
Genere: Horror, Thriller
Durata: 93 minuti
Regista: Oz Perkins
Sceneggiatura: Oz Perkins
Soggetto: Oz Perkins



   Kat Kiernan Shipka
   Rose Lucy Boynton
   Joan Emma Roberts
   Rick Peter J. Gray
   Lizzy Emma Holzer
   – James Remar
   Ranger Matthew Stefiuk
   Mamma di Kat Jodi Larratt
   Papà di Kat Douglas Kidd
   – Lauren Holly
   Cameriera Ronda Louis-Jeune
   Hostess Donna St-Jean
   Mrs. Drake Heather Tod Mitchell



In una severa scuola privata di estrazione cattolica, alla vigilia delle vacanze invernali, due sole studentesse rimangono nella struttura perchè i genitri di entrambe, per vari motivi, non sono andate a prenderle per tempo. Diverse per età e carattere, le due ragazze sono costrette a convivere in una magione che si è letteralmente svuotata della vita che generalmente la occupa, circostanza ideale a rendere spettrali ambienti enormi ed austeri....................



Two girls must battle a mysterious evil force when they get left behind at their boarding school over winter break.











[spoiler]
General
Unique ID                                : 139315651339730574646771623309236191034 (0x68CF37ED3CAE5E0CF2179A4462873F3A)
Complete name                            : February - L'innocenza del male - The Blackcoat's Daughter (2015).H264.ita.eng.sub.ita.iCV-MIRCrew.mkv
Format                                   : Matroska
Format version                           : Version 2
File size                                : 1.40 GiB
Duration                                 : 1h 34mn
Overall bit rate                         : 2 116 Kbps
Movie name                               : www.icv-crew.org
Encoded date                             : UTC 2017-08-03 17:16:45
Writing application                      : Lavf54.63.100
Writing library                          : Lavf54.63.100
COPYRIGHT                                : robbyrs
DATE                                     : 2017

Video
ID                                       : 1
Format                                   : AVC
Format/Info                              : Advanced Video Codec
Format profile                           : [email protected]
Format settings, CABAC                   : Yes
Format settings, ReFrames                : 2 frames
Codec ID                                 : V_MPEG4/ISO/AVC
Duration                                 : 1h 34mn
Bit rate                                 : 1 178 Kbps
Nominal bit rate                         : 1 290 Kbps
Width                                    : 720 pixels
Height                                   : 384 pixels
Display aspect ratio                     : 1.854
Original display aspect ratio            : 1.853
Frame rate mode                          : Variable
Frame rate                               : 24.000 fps
Color space                              : YUV
Chroma subsampling                       : 4:2:0
Bit depth                                : 8 bits
Scan type                                : Progressive
Bits/(Pixel*Frame)                       : 0.178
Stream size                              : 797 MiB (56%)
Writing library                          : x264 core 130 r2273
Encoding settings                        : cabac=1 / ref=2 / deblock=1:0:0 / analyse=0x1:0x131 / me=hex / subme=7 / psy=1 / psy_rd=1.00:0.00 / mixed_ref=0 / me_range=16 / chroma_me=1 / trellis=1 / 8x8dct=0 / cqm=0 / deadzone=21,11 / fast_pskip=1 / chroma_qp_offset=-2 / threads=12 / lookahead_threads=2 / sliced_threads=0 / nr=0 / decimate=1 / interlaced=0 / bluray_compat=0 / constrained_intra=0 / bframes=3 / b_pyramid=0 / b_adapt=1 / b_bias=0 / direct=3 / weightb=1 / open_gop=0 / weightp=2 / keyint=240 / keyint_min=24 / scenecut=40 / intra_refresh=0 / rc_lookahead=40 / rc=abr / mbtree=1 / bitrate=1290 / ratetol=1.0 / qcomp=0.60 / qpmin=10 / qpmax=69 / qpstep=4 / vbv_maxrate=24000 / vbv_bufsize=24000 / nal_hrd=none / ip_ratio=1.40 / aq=1:1.00
Language                                 : Italian
Default                                  : Yes
Forced                                   : No
DURATION                                 : 01:34:20.042000000
NUMBER_OF_FRAMES                         : 135841
NUMBER_OF_BYTES                          : 2075249360
_STATISTICS_WRITING_APP                  : mkvmerge v12.0.0 ('Trust / Lust') 64bit
_STATISTICS_WRITING_DATE_UTC             : 2017-06-21 06:01:19
_STATISTICS_TAGS                         : BPS DURATION NUMBER_OF_FRAMES NUMBER_OF_BYTES

Audio #1
ID                                       : 2
Format                                   : AC-3
Format/Info                              : Audio Coding 3
Mode extension                           : CM (complete main)
Codec ID                                 : A_AC3
Duration                                 : 1h 34mn
Bit rate mode                            : Constant
Bit rate                                 : 448 Kbps
Channel(s)                               : 6 channels
Channel positions                        : Front: L C R, Side: L R, LFE
Sampling rate                            : 48.0 KHz
Bit depth                                : 16 bits
Compression mode                         : Lossy
Delay relative to video                  : 1mn 5s
Stream size                              : 303 MiB (21%)
Language                                 : Italian
Default                                  : Yes
Forced                                   : No
DURATION                                 : 01:34:34.688000000
NUMBER_OF_FRAMES                         : 532002
NUMBER_OF_BYTES                          : 1070388024
_STATISTICS_WRITING_APP                  : mkvmerge v12.0.0 ('Trust / Lust') 64bit
_STATISTICS_WRITING_DATE_UTC             : 2017-06-21 06:01:19
_STATISTICS_TAGS                         : BPS DURATION NUMBER_OF_FRAMES NUMBER_OF_BYTES

Audio #2
ID                                       : 3
Format                                   : AC-3
Format/Info                              : Audio Coding 3
Mode extension                           : CM (complete main)
Codec ID                                 : A_AC3
Duration                                 : 1h 34mn
Bit rate mode                            : Constant
Bit rate                                 : 448 Kbps
Channel(s)                               : 6 channels
Channel positions                        : Front: L C R, Side: L R, LFE
Sampling rate                            : 48.0 KHz
Bit depth                                : 16 bits
Compression mode                         : Lossy
Delay relative to video                  : 1mn 5s
Stream size                              : 303 MiB (21%)
Language                                 : English
Default                                  : No
Forced                                   : No
DURATION                                 : 01:34:21.088000000
NUMBER_OF_FRAMES                         : 176909
NUMBER_OF_BYTES                          : 452887040
_STATISTICS_WRITING_APP                  : mkvmerge v12.0.0 ('Trust / Lust') 64bit
_STATISTICS_WRITING_DATE_UTC             : 2017-06-21 06:01:19
_STATISTICS_TAGS                         : BPS DURATION NUMBER_OF_FRAMES NUMBER_OF_BYTES

Text #1
ID                                       : 4
Format                                   : VobSub
Codec ID                                 : S_VOBSUB
Codec ID/Info                            : The same subtitle format used on DVDs
Title                                    : ITA
Language                                 : Italian
Default                                  : No
Forced                                   : No
DURATION                                 : 01:23:55.550000000
NUMBER_OF_FRAMES                         : 560
NUMBER_OF_BYTES                          : 1761675
_STATISTICS_WRITING_APP                  : mkvmerge v12.0.0 ('Trust / Lust') 64bit
_STATISTICS_WRITING_DATE_UTC             : 2017-06-21 06:01:19
_STATISTICS_TAGS                         : BPS DURATION NUMBER_OF_FRAMES NUMBER_OF_BYTES

Text #2
ID                                       : 5
Format                                   : VobSub
Codec ID                                 : S_VOBSUB
Codec ID/Info                            : The same subtitle format used on DVDs
Title                                    : ITA
Language                                 : Italian
Default                                  : No
Forced                                   : No
DURATION                                 : 01:23:55.550000000
NUMBER_OF_FRAMES                         : 560
NUMBER_OF_BYTES                          : 1761675
_STATISTICS_WRITING_APP                  : mkvmerge v12.0.0 ('Trust / Lust') 64bit
_STATISTICS_WRITING_DATE_UTC             : 2017-06-21 06:01:19
_STATISTICS_TAGS                         : BPS DURATION NUMBER_OF_FRAMES NUMBER_OF_BYTES

Menu
00:00:00.000                             : :00:00:00.000
00:08:39.833                             : :00:08:39.833
00:16:35.625                             : :00:16:35.625
00:24:26.417                             : :00:24:26.417
00:31:28.625                             : :00:31:28.625
00:40:36.417                             : :00:40:36.417
00:49:13.000                             : :00:49:13.000
00:55:32.417                             : :00:55:32.417
01:04:22.625                             : :01:04:22.625
01:13:07.833                             : :01:13:07.833
01:20:58.417                             : :01:20:58.417
01:27:49.208                             : :01:27:49.208



[/spoiler]

[/center]

Info: Per scaricare devi usare un client come uTorrent o Transmission
AnnounceURL
udp://tracker.coppersurfer.tk:6969/announce
Hash 46bb6e062ff0404c7b188c2421176c16047fa1a5
Peers seeds: 39 , leech: 10
Size 1.40 GB
Completato 1228x
Aggiunto 06.08.17 - 07:08:21
Uploader   robbyrs
Votazione (Voti: 0)


Condividi questo bittorrent:


html/blog:


bbcode/forum:




Aggiungi Commento


counter