* Dettagli Torrent   globale  | Commenti (0) 


- Un matrimonio da favola (2014).XviD.Italian.Ac3.5.1.sub.ita.eng.iCV-MIRCrew -


Download via torrent:
Categoria bittorrent BDRip
Descrizione
Un matrimonio da favola (2014).XviD.Italian.Ac3.5.1.sub.ita.eng.iCV-MIRCrew

[center]by www.icv-crew.org


NO FOUND ONLY ORIGINAL RELEASE



My release is always in double track audio italian and Original audio
for select it use VLC or dvd player home
not use wmp

Un matrimonio da favola (2014)

ENGLISH SUBTITLE INSIDE







Titolo originale Un matrimonio da favola
Lingua originale Italiano
Paese di produzione Italia
Anno 2014
Durata 91 min
Genere commedia
Regia Carlo Vanzina
Soggetto Enrico Vanzina
Carlo Vanzina
Edoardo Falcone
Sceneggiatura Enrico Vanzina
Carlo Vanzina
Edoardo Falcone
Produttore Fulvio Lucisano, Federica Lucisano
Casa di produzione Italian International Film, Rai Cinema
Distribuzione (Italia) 01 Distribution
Fotografia Enrico Lucidi
Montaggio Luca Montanari
Musiche Franco Godi
Scenografia Tonino Zera
Costumi Daniela Rossi




   Stefania Rocca: Luciana
   Emilio Solfrizzi: Giovanni
   Adriano Giannini: Luca
   Giorgio Pasotti: Alessandro
   Ricky Memphis: Daniele
   Paola Minaccioni: Paola
   Max Tortora: Zio di Daniele
   Luca Angeletti: Roberto
   Andrea Osvárt: Barbara
   Ilaria Spada: Sara
   Riccardo Rossi: Fabio Rocchetti
   Stephan Käfer: Michael
   Gabrielle Scharnitzky: Ludmilla
   Francesco Cataldo: Cerimoniere
   Pia Engleberth: Brunella
   Teco Celio: Casimiro
   Roberta Fiorentini: Iole Capozzi




Daniele lavora presso un importante gruppo bancario a Zurigo, ma non spicca per doti d'intraprendenza e resta bloccato in un incarico secondario. Decide di sposare Barbara, la bella figlia del suo capo, nonostante quest'ultimo non abbia la benché minima stima nei suoi confronti. Al matrimonio Daniele decide di invitare i parenti stretti, cioè la madre e uno zio ladro, ma anche i suoi vecchi compagni di scuola che non vede dai tempi del liceo.............



Daniel uses his wedding to a wealthy heiress as the excuse for a school reunion with hilarious results.













[spoiler]
General
Complete name                            : Un matrimonio da favola (2014).ita.sub.ita.eng-MIRCrew\Un matrimonio da favola (2014).ita.sub.ita.eng-MIRCrew.avi
Format                                   : AVI
Format/Info                              : Audio Video Interleave
File size                                : 1.26 GiB
Duration                                 : 1h 36mn
Overall bit rate                         : 1 878 Kbps
Movie name                               : ENCODED by.icv-crew
Writing application                      : VirtualDubMod 1.5.10.2 (build 2540/release)
Writing library                          : VirtualDubMod build 2540/release

Video
ID                                       : 0
Format                                   : MPEG-4 Visual
Format profile                           : [email protected]
Format settings, BVOP                    : No
Format settings, QPel                    : No
Format settings, GMC                     : No warppoints
Format settings, Matrix                  : Default (H.263)
Codec ID                                 : XVID
Codec ID/Hint                            : XviD
Duration                                 : 1h 36mn
Bit rate                                 : 1 421 Kbps
Width                                    : 720 pixels
Height                                   : 300 pixels
Display aspect ratio                     : 2.40:1
Frame rate                               : 24.000 fps
Color space                              : YUV
Chroma subsampling                       : 4:2:0
Bit depth                                : 8 bits
Scan type                                : Progressive
Compression mode                         : Lossy
Bits/(Pixel*Frame)                       : 0.274
Stream size                              : 980 MiB (76%)
Writing library                          : XviD 64

Audio
ID                                       : 1
Format                                   : AC-3
Format/Info                              : Audio Coding 3
Mode extension                           : CM (complete main)
Codec ID                                 : 2000
Duration                                 : 1h 36mn
Bit rate mode                            : Constant
Bit rate                                 : 448 Kbps
Channel(s)                               : 6 channels
Channel positions                        : Front: L C R, Side: L R, LFE
Sampling rate                            : 48.0 KHz
Bit depth                                : 16 bits
Compression mode                         : Lossy
Stream size                              : 309 MiB (24%)
Alignment                                : Split accross interleaves
Interleave, duration                     : 42 ms (1.00 video frame)
Interleave, preload duration             : 500 ms


[/spoiler]

[/center]

Info: Per scaricare devi usare un client come uTorrent o Transmission
AnnounceURL
udp://tracker.coppersurfer.tk:6969/announce
Hash 8ba65c6c9768e9a1f0a774400e6caa22830fa614
Peers seeds: 23 , leech: 10
Size 1.26 GB
Completato 837x
Aggiunto 06.08.17 - 06:08:46
Uploader   robbyrs
Votazione (Voti: 1)


Condividi questo bittorrent:


html/blog:


bbcode/forum:




Aggiungi Commento


counter