* Dettagli Torrent   globale  | Commenti (0) 


- Torneranno i prati (2014).XviD.Italian.Ac3.5.1.sub.ita.eng.spa.fre.iCV-MIRCrew -


Download via torrent:
Categoria bittorrent BDRip
Descrizione
Torneranno i prati (2014).XviD.Italian.Ac3.5.1.sub.ita.eng.spa.fre.iCV-MIRCrew

[center]by www.icv-crew.org


NO FOUND ONLY ORIGINAL RELEASE



My release is always in double track audio italian and Original audio
for select it use VLC or dvd player home
not use wmp

Torneranno i prati (2014)

ENGLISH SPANISH FRENCH SUBTITLE INSIDE







Lingua originale italiano
Paese di produzione Italia
Anno 2014
Durata 80 min
Genere drammatico
Regia Ermanno Olmi
Sceneggiatura Ermanno Olmi
Produttore Luigi Musini, Elisabetta Olmi
Casa di produzione Cinemaundici, Ipotesi Cinema, Rai Cinema
Distribuzione (Italia) 01 Distribution




   Claudio Santamaria: Il maggiore
   Alessandro Sperduti: Il tenente
   Francesco Formichetti: Il capitano
   Andrea Di Maria: Il conducente di mulo
   Camillo Grassi: L'attendente
   Niccolò Senni: Il dimenticato
   Domenico Benetti: Il sergente
   Andrea Frigo: Il soldato comandato
   Andrea Benetti: Il caporale
   Francesco Nardelli: Il soldato Toni




Il film si svolge durante delle notti sul fronte Nord-Est, dopo gli ultimi sanguinosi scontri del 1917 ed è ambientato nelle trincee degli Altipiani innevati. La vita dei soldati alterna lunghe ed interminabili attese, che accentuano la paura, ad improvvisi accadimenti imprevedibili. La pace della montagna diventa un luogo dove si muore.



A group of soldiers face the difficulty of war during one night at the Italian Front.











[spoiler]
General
Complete name                            : Torneranno i prati (2014).ita.sub.ita.eng.fre.spa-MIRCrew.avi
Format                                   : AVI
Format/Info                              : Audio Video Interleave
File size                                : 931 MiB
Duration                                 : 1h 13mn
Overall bit rate                         : 1 781 Kbps
Writing application                      : VirtualDubMod 1.5.4.1 (build 2178/release)
Writing library                          : VirtualDubMod build 2178/release

Video
ID                                       : 0
Format                                   : MPEG-4 Visual
Format profile                           : Advanced [email protected]
Format settings, BVOP                    : No
Format settings, QPel                    : No
Format settings, GMC                     : No warppoints
Format settings, Matrix                  : Custom
Codec ID                                 : XVID
Codec ID/Hint                            : XviD
Duration                                 : 1h 13mn
Bit rate                                 : 1 327 Kbps
Width                                    : 720 pixels
Height                                   : 384 pixels
Display aspect ratio                     : 1.875
Frame rate                               : 25.000 fps
Color space                              : YUV
Chroma subsampling                       : 4:2:0
Bit depth                                : 8 bits
Scan type                                : Progressive
Compression mode                         : Lossy
Bits/(Pixel*Frame)                       : 0.192
Stream size                              : 694 MiB (75%)
Writing library                          : XviD 64

Audio
ID                                       : 1
Format                                   : AC-3
Format/Info                              : Audio Coding 3
Mode extension                           : CM (complete main)
Codec ID                                 : 2000
Duration                                 : 1h 12mn
Bit rate mode                            : Constant
Bit rate                                 : 448 Kbps
Channel(s)                               : 6 channels
Channel positions                        : Front: L C R, Side: L R, LFE
Sampling rate                            : 48.0 KHz
Bit depth                                : 16 bits
Compression mode                         : Lossy
Stream size                              : 233 MiB (25%)
Alignment                                : Split accross interleaves
Interleave, duration                     : 96 ms (2.41 video frames)
Interleave, preload duration             : 96 ms
Language                                 : Italian


[/spoiler]

[/center]

Info: Per scaricare devi usare un client come uTorrent o Transmission
AnnounceURL
udp://tracker.coppersurfer.tk:6969/announce
Hash 0772abed63ef6bbb8e43046590ab535597c2bd6f
Peers seeds: 33 , leech: 5
Size 937.73 MB
Completato 776x
Aggiunto 06.08.17 - 04:08:01
Uploader   robbyrs
Votazione (Voti: 1)


Condividi questo bittorrent:


html/blog:


bbcode/forum:




Aggiungi Commento


counter