* Dettagli Torrent   globale  | Commenti (0) 


- Scare Campaign (2015).H264.Italian.English.Ac3.5.1.sub.ita.iCV-MIRCrew -


Download via torrent:
Categoria bittorrent BDRip
Descrizione
Scare Campaign (2015).H264.Italian.English.Ac3.5.1.sub.ita.iCV-MIRCrew


[center]by www.icv-crew.org


NO FOUND ONLY ORIGINAL RELEASE



My release is always in double track audio italian and Original audio
for select it use VLC or dvd player home
not use wmp

Scare Campaign (2015)

PRESENTI ANCHE i SOTTOTITOLI

ESTERNI IN SRT (ita)








Titolo Originale: Scare Campaign
Genere: Horror
Regista: Cairnes Colin Cairnes
Genere: Horror
Nazione: USA
Durata: 1h 20?




Meegan Warner (Emma)
Ian Meadows (Marcus)



Scare Campaign, popolare programma tv incentrato sugli scherzi, ha divertito il pubblico per cinque anni conquistando uno zoccolo duro di spettatori. Ma con l'ingresso nella tv di nuova generazione, incentrata sull'interattività, produttori si trovano a dover fare i conti con una web series che fa apparire i loro scherzi vetusti.



Popular prank TV show, Scare Campaign, has been entertaining audiences for the last 5 years with its mix of old school scares and hidden camera fun. But as we enter a new age of online TV ...











[spoiler]
General
Unique ID                                : 205457097286273776488917642600305664238 (0x9A9198FBFD42F14355EEFD37529C20EE)
Complete name                            : Scare Campaign (2015).H264.ita.eng.sub.ita.iCV-MIRCrew.mkv
Format                                   : Matroska
Format version                           : Version 2
File size                                : 1.21 GiB
Duration                                 : 1h 20mn
Overall bit rate                         : 2 156 Kbps
Movie name                               : www.icv-crew.org
Encoded date                             : UTC 2017-07-18 22:26:05
Writing application                      : Lavf54.63.100
Writing library                          : Lavf54.63.100
COMMENT                                  : visita www.icv-crew.org
COPYRIGHT                                : robbyrs
DATE                                     : 2017

Video
ID                                       : 1
Format                                   : AVC
Format/Info                              : Advanced Video Codec
Format profile                           : [email protected]
Format settings, CABAC                   : Yes
Format settings, ReFrames                : 2 frames
Codec ID                                 : V_MPEG4/ISO/AVC
Duration                                 : 1h 20mn
Bit rate                                 : 1 217 Kbps
Nominal bit rate                         : 1 290 Kbps
Width                                    : 720 pixels
Height                                   : 304 pixels
Display aspect ratio                     : 2.40:1
Frame rate mode                          : Variable
Frame rate                               : 24.000 fps
Color space                              : YUV
Chroma subsampling                       : 4:2:0
Bit depth                                : 8 bits
Scan type                                : Progressive
Bits/(Pixel*Frame)                       : 0.232
Stream size                              : 699 MiB (56%)
Writing library                          : x264 core 130 r2273
Encoding settings                        : cabac=1 / ref=2 / deblock=1:0:0 / analyse=0x1:0x131 / me=hex / subme=7 / psy=1 / psy_rd=1.00:0.00 / mixed_ref=0 / me_range=16 / chroma_me=1 / trellis=1 / 8x8dct=0 / cqm=0 / deadzone=21,11 / fast_pskip=1 / chroma_qp_offset=-2 / threads=12 / lookahead_threads=2 / sliced_threads=0 / nr=0 / decimate=1 / interlaced=0 / bluray_compat=0 / constrained_intra=0 / bframes=3 / b_pyramid=0 / b_adapt=1 / b_bias=0 / direct=3 / weightb=1 / open_gop=0 / weightp=2 / keyint=240 / keyint_min=24 / scenecut=40 / intra_refresh=0 / rc_lookahead=40 / rc=abr / mbtree=1 / bitrate=1290 / ratetol=1.0 / qcomp=0.60 / qpmin=10 / qpmax=69 / qpstep=4 / vbv_maxrate=24000 / vbv_bufsize=24000 / nal_hrd=none / ip_ratio=1.40 / aq=1:1.00
Language                                 : Italian
Default                                  : Yes
Forced                                   : Yes
DURATION                                 : 01:20:16.000000000
NUMBER_OF_FRAMES                         : 115584
NUMBER_OF_BYTES                          : 3893599429
_STATISTICS_WRITING_APP                  : mkvmerge v10.0.0 ('To Drown In You') 64bit
_STATISTICS_WRITING_DATE_UTC             : 2017-05-30 08:22:21
_STATISTICS_TAGS                         : BPS DURATION NUMBER_OF_FRAMES NUMBER_OF_BYTES

Audio #1
ID                                       : 2
Format                                   : AC-3
Format/Info                              : Audio Coding 3
Mode extension                           : CM (complete main)
Codec ID                                 : A_AC3
Duration                                 : 1h 20mn
Bit rate mode                            : Constant
Bit rate                                 : 448 Kbps
Channel(s)                               : 6 channels
Channel positions                        : Front: L C R, Side: L R, LFE
Sampling rate                            : 48.0 KHz
Bit depth                                : 16 bits
Compression mode                         : Lossy
Delay relative to video                  : 1mn 5s
Stream size                              : 257 MiB (21%)
Language                                 : Italian
Default                                  : Yes
Forced                                   : Yes
DURATION                                 : 01:20:14.070000000
NUMBER_OF_FRAMES                         : 451319
NUMBER_OF_BYTES                          : 908053828
_STATISTICS_WRITING_APP                  : mkvmerge v10.0.0 ('To Drown In You') 64bit
_STATISTICS_WRITING_DATE_UTC             : 2017-05-30 08:22:21
_STATISTICS_TAGS                         : BPS DURATION NUMBER_OF_FRAMES NUMBER_OF_BYTES

Audio #2
ID                                       : 3
Format                                   : AC-3
Format/Info                              : Audio Coding 3
Mode extension                           : CM (complete main)
Codec ID                                 : A_AC3
Duration                                 : 1h 20mn
Bit rate mode                            : Constant
Bit rate                                 : 448 Kbps
Channel(s)                               : 6 channels
Channel positions                        : Front: L C R, Side: L R, LFE
Sampling rate                            : 48.0 KHz
Bit depth                                : 16 bits
Compression mode                         : Lossy
Delay relative to video                  : 1mn 5s
Stream size                              : 257 MiB (21%)
Language                                 : English
Default                                  : No
Forced                                   : No
DURATION                                 : 01:20:14.070000000
NUMBER_OF_FRAMES                         : 451319
NUMBER_OF_BYTES                          : 908053828
_STATISTICS_WRITING_APP                  : mkvmerge v10.0.0 ('To Drown In You') 64bit
_STATISTICS_WRITING_DATE_UTC             : 2017-05-30 08:22:21
_STATISTICS_TAGS                         : BPS DURATION NUMBER_OF_FRAMES NUMBER_OF_BYTES

Text #1
ID                                       : 4
Format                                   : ASS
Codec ID                                 : S_TEXT/ASS
Codec ID/Info                            : Advanced Sub Station Alpha
Compression mode                         : Lossless
Title                                    : Italiano forced
Language                                 : Italian
Default                                  : Yes
Forced                                   : Yes
DURATION                                 : 00:00:01.500000000
NUMBER_OF_FRAMES                         : 1
NUMBER_OF_BYTES                          : 33
_STATISTICS_WRITING_APP                  : mkvmerge v10.0.0 ('To Drown In You') 64bit
_STATISTICS_WRITING_DATE_UTC             : 2017-05-30 08:22:21
_STATISTICS_TAGS                         : BPS DURATION NUMBER_OF_FRAMES NUMBER_OF_BYTES

Text #2
ID                                       : 5
Format                                   : ASS
Codec ID                                 : S_TEXT/ASS
Codec ID/Info                            : Advanced Sub Station Alpha
Compression mode                         : Lossless
Title                                    : Italiano
Language                                 : Italian
Default                                  : No
Forced                                   : No
DURATION                                 : 01:13:07.375000000
NUMBER_OF_FRAMES                         : 870
NUMBER_OF_BYTES                          : 29496
_STATISTICS_WRITING_APP                  : mkvmerge v10.0.0 ('To Drown In You') 64bit
_STATISTICS_WRITING_DATE_UTC             : 2017-05-30 08:22:21
_STATISTICS_TAGS                         : BPS DURATION NUMBER_OF_FRAMES NUMBER_OF_BYTES

Menu
00:00:00.000                             : :Capitolo 01
00:05:44.208                             : :Capitolo 02
00:13:15.000                             : :Capitolo 03
00:21:12.000                             : :Capitolo 04
00:26:21.625                             : :Capitolo 05
00:33:27.833                             : :Capitolo 06
00:40:34.625                             : :Capitolo 07
00:46:35.625                             : :Capitolo 08
00:52:37.208                             : :Capitolo 09
00:59:58.625                             : :Capitolo 10
01:06:26.833                             : :Capitolo 11
01:12:19.208                             : :Capitolo 12


[/spoiler]

[/center]

Info: Per scaricare devi usare un client come uTorrent o Transmission
AnnounceURL
udp://tracker.coppersurfer.tk:6969/announce
Hash 33d2e909f81170d72d1060d2ef40dcada95c909c
Peers seeds: 23 , leech: 4
Size 1.21 GB
Completato 657x
Aggiunto 06.08.17 - 03:08:03
Uploader   robbyrs
Votazione (Voti: 1)


Condividi questo bittorrent:


html/blog:


bbcode/forum:




Aggiungi Commento


counter