* Dettagli Torrent   globale  | Commenti (0) 


- Starcrash - Scontri stellari oltre la terza dimensione (1978).H264.Italian.English.Ac3.sub.eng.spa.f -


Download via torrent:
Categoria bittorrent BDRip
Descrizione
Starcrash - Scontri stellari oltre la terza dimensione (197.H264.Italian.English.Ac3.sub.eng.spa.fre.iCV-MIRCrew


[center]by www.icv.crew.org


NO FOUND ONLY ORIGINAL RELEASE



My release is always in double track audio italian and Original audio
for select it use VLC or dvd player home
not use wmp

Starcrash - Scontri stellari oltre la terza dimensione (197







Titolo originale Starcrash
Lingua originale inglese, italiano
Paese di produzione Italia, Stati Uniti
Anno 1978
Durata 94 min
Rapporto 1,85 : 1
Genere fantascienza
Regia Luigi Cozzi (come Lewis Coates)
Soggetto Luigi Cozzi (come Lewis Coates), Nat Wachsberger
Sceneggiatura Luigi Cozzi (come Lewis Coates), Nat Wachsberger
Produttore Nat Wachsberger, Patrick Wachsberger
Fotografia Paul Beeson, Roberto D'Ettorre Piazzoli
Montaggio Sergio Montanari
Effetti speciali Germano Natali, Armando Valcauda, Matteo Verzini
Musiche John Barry
Scenografia Aurelio Crugnola
Trucco Giancarlo De Leonardis




   Marjoe Gortner: Akton
   Caroline Munro: Stella Star
   Christopher Plummer: l'imperatore
   David Hasselhoff: Raima (Simon)[1]
   Robert Tessier: Thor
   Joe Spinell: Conte Zarth Arn
   Nadia Cassini: la regina delle Amazzoni
   Judd Hamilton: Elle
   Dirce Funari: una donna amazzone
   Cindy Leadbetter




L'avventuriera fuorilegge Stella Star e il suo inseparabile amico Akton, dopo avere cercato inutilmente di sfuggire alle astronavi dell'impero, vengono catturati e condannati ai lavori forzati su due pianeti diversi.................



An outlaw smuggler and her alien companion are recruited by the Emperor of the Galaxy to rescue his son and destroy a secret weapon by the evil Count Zarth Arn.








[spoiler]
General
Unique ID                                : 200626205647708363187287241518952494570 (0x96EF33A32C451AB283859C1A8CD435EA)
Complete name                            : Starcrash - Scontri Stellari oltre la terza dimensione (197.H264.ita.eng.sub.ita.eng.spa.fre.iCV-MIRCrew
Format                                   : Matroska
Format version                           : Version 2
File size                                : 1.03 GiB
Duration                                 : 1h 33mn
Overall bit rate                         : 1 581 Kbps
Movie name                               : www.icv-crew.org
Encoded date                             : UTC 2017-08-04 15:27:01
Writing application                      : mkvmerge v5.4.0 ('Piper') built on Mar 10 2012 13:34:39
Writing library                          : Lavf54.63.100
COPYRIGHT                                : robbyrs
DATE                                     : 2017

Video
ID                                       : 1
Format                                   : AVC
Format/Info                              : Advanced Video Codec
Format profile                           : [email protected]
Format settings, CABAC                   : Yes
Format settings, ReFrames                : 2 frames
Muxing mode                              : Header stripping
Codec ID                                 : V_MPEG4/ISO/AVC
Duration                                 : 1h 33mn
Bit rate                                 : 1 200 Kbps
Width                                    : 608 pixels
Height                                   : 320 pixels
Display aspect ratio                     : 1.900
Frame rate mode                          : Variable
Frame rate                               : 25.000 fps
Color space                              : YUV
Chroma subsampling                       : 4:2:0
Bit depth                                : 8 bits
Scan type                                : Progressive
Bits/(Pixel*Frame)                       : 0.247
Stream size                              : 777 MiB (74%)
Title                                    : Starcrash - Scontri Stellari Oltre La Terza Dimensione (197.H264.ita.eng.iCV-MIRCrew
Writing library                          : x264 core 130 r2273
Encoding settings                        : cabac=1 / ref=2 / deblock=1:0:0 / analyse=0x1:0x131 / me=hex / subme=7 / psy=1 / psy_rd=1.00:0.00 / mixed_ref=0 / me_range=16 / chroma_me=1 / trellis=1 / 8x8dct=0 / cqm=0 / deadzone=21,11 / fast_pskip=1 / chroma_qp_offset=-2 / threads=3 / lookahead_threads=1 / sliced_threads=0 / nr=0 / decimate=1 / interlaced=0 / bluray_compat=0 / constrained_intra=0 / bframes=3 / b_pyramid=0 / b_adapt=1 / b_bias=0 / direct=3 / weightb=1 / open_gop=0 / weightp=2 / keyint=250 / keyint_min=25 / scenecut=40 / intra_refresh=0 / rc_lookahead=40 / rc=abr / mbtree=1 / bitrate=1200 / ratetol=1.0 / qcomp=0.60 / qpmin=10 / qpmax=69 / qpstep=4 / vbv_maxrate=24000 / vbv_bufsize=24000 / nal_hrd=none / ip_ratio=1.40 / aq=1:1.00
Language                                 : Italian
Default                                  : Yes
Forced                                   : No

Audio #1
ID                                       : 2
Format                                   : AC-3 Ita
Format/Info                              : Audio Coding 3
Mode extension                           : CM (complete main)
Muxing mode                              : Header stripping
Codec ID                                 : A_AC3
Duration                                 : 1h 33mn
Bit rate mode                            : Constant
Bit rate                                 : 192 Kbps
Channel(s)                               : 2 channels
Channel positions                        : Front: L R
Sampling rate                            : 48.0 KHz
Bit depth                                : 16 bits
Compression mode                         : Lossy
Delay relative to video                  : -5ms
Stream size                              : 128 MiB (12%)

Default                                  : Yes
Forced                                   : No

Audio #2
ID                                       : 3
Format                                   : AC-3 Eng
Format/Info                              : Audio Coding 3
Mode extension                           : CM (complete main)
Muxing mode                              : Header stripping
Codec ID                                 : A_AC3
Duration                                 : 1h 33mn
Bit rate mode                            : Constant
Bit rate                                 : 192 Kbps
Channel(s)                               : 2 channels
Channel positions                        : Front: L R
Sampling rate                            : 48.0 KHz
Bit depth                                : 16 bits
Compression mode                         : Lossy
Delay relative to video                  : -5ms
Stream size                              : 128 MiB (12%)
Default                                  : No
Forced                                   : No

Text #1
ID                                       : 4
Format                                   : UTF-8 fre
Codec ID                                 : S_TEXT/UTF8
Codec ID/Info                            : UTF-8 Plain Text
Default                                  : Yes
Forced                                   : No

Text #2
ID                                       : 5
Format                                   : UTF-8 eng
Codec ID                                 : S_TEXT/UTF8
Codec ID/Info                            : UTF-8 Plain Text
Default                                  : No
Forced                                   : No

Text #3
ID                                       : 6
Format                                   : UTF-8 spa
Codec ID                                 : S_TEXT/UTF8
Codec ID/Info                            : UTF-8 Plain Text
Default                                  : No
Forced                                   : No


[/spoiler]

[/center]

Info: Per scaricare devi usare un client come uTorrent o Transmission
AnnounceURL
udp://tracker.coppersurfer.tk:6969/announce
Hash 1ba975dd903ea92c10a305d1225dd4182004fc0d
Peers seeds: 23 , leech: 1
Size 1.03 GB
Completato 854x
Aggiunto 04.08.17 - 11:08:42
Uploader   robbyrs
Votazione (Voti: 0)


Condividi questo bittorrent:


html/blog:


bbcode/forum:




Aggiungi Commento


counter