* Dettagli Torrent   globale  | Commenti (0) 


- I Puffi Viaggio nella foresta segreta (2017).Italian.English.Ac3.5.1.sub.ita.iCV-MIRCrew -


Download via torrent:
Categoria bittorrent BDRip
Descrizione
Smurfs: The Lost Village - I Puffi Viaggio nella foresta segreta (2017).Italian.English.Ac3.5.1.sub.ita.iCV-MIRCrew


[center]by www.icv-crew.org


NO FOUND ONLY ORIGINAL RELEASE



My release is always in double track audio italian and Original audio
for select it use VLC or dvd player home
not use wmp

I Puffi Viaggio nella foresta segreta - Smurfs: The Lost Village (2017)








   DATA USCITA: 06 aprile 2017
   GENERE: Animazione, Avventura, Family
   ANNO: 2017
   REGIA: Kelly Asbury
   
   PAESE: USA
   DURATA: 89 Min
   FORMATO: 2D e 3D
   DISTRIBUZIONE: Warner Bros.



Demi Lovato, Rainn Wilson, Joe Manganiello, Jack McBrayer, Danny Pudi, Mandy Patinkin



In questo film dei Puffi, completamente nuovo e interamente animato, una mappa misteriosa spinge Puffetta e i suoi migliori amici Quattrocchi Tontolone e Forzuto a una corsa emozionante e piena di suspence attraverso la Foresta Segreta, un luogo popolato da creature magiche, per trovare un villaggio perduto prima che ci arrivi il perfido Gargamella......



In this fully animated, all-new take on the Smurfs, a mysterious map sets Smurfette and her friends Brainy, Clumsy and Hefty on an exciting race through the Forbidden Forest leading to the discovery of the biggest secret in Smurf history.











[spoiler]
General
Complete name                            : I Puffi Viaggio nella foresta segreta - Smurfs The Lost Village (2017).Ita.Eng.sub.ita.iCV-MIRCrew.avi
Format                                   : AVI
Format/Info                              : Audio Video Interleave
File size                                : 1.48 GiB
Duration                                 : 1h 29mn
Overall bit rate                         : 2 357 Kbps
Movie name                               : icv-crew
Recorded date                            : 2017
Writing application                      : VirtualDubMod 1.5.10.2 (build 2540/release)
Writing library                          : VirtualDubMod build 2540/release
Copyright                                : robbyrs

Video
ID                                       : 0
Format                                   : MPEG-4 Visual
Format profile                           : [email protected]
Format settings, BVOP                    : No
Format settings, QPel                    : No
Format settings, GMC                     : No warppoints
Format settings, Matrix                  : Default (H.263)
Codec ID                                 : XVID
Codec ID/Hint                            : XviD
Duration                                 : 1h 29mn
Bit rate                                 : 1 447 Kbps
Width                                    : 720 pixels
Height                                   : 384 pixels
Display aspect ratio                     : 1.853
Frame rate                               : 23.976 fps
Color space                              : YUV
Chroma subsampling                       : 4:2:0
Bit depth                                : 8 bits
Scan type                                : Progressive
Compression mode                         : Lossy
Bits/(Pixel*Frame)                       : 0.218
Stream size                              : 929 MiB (61%)
Writing library                          : XviD 64

Audio #1
ID                                       : 1
Format                                   : AC-3
Format/Info                              : Audio Coding 3
Mode extension                           : CM (complete main)
Codec ID                                 : 2000
Duration                                 : 1h 29mn
Bit rate mode                            : Constant
Bit rate                                 : 448 Kbps
Channel(s)                               : 6 channels
Channel positions                        : Front: L C R, Side: L R, LFE
Sampling rate                            : 48.0 KHz
Bit depth                                : 16 bits
Compression mode                         : Lossy
Stream size                              : 288 MiB (19%)
Alignment                                : Split accross interleaves
Interleave, duration                     : 42 ms (1.00 video frame)
Interleave, preload duration             : 500 ms

Audio #2
ID                                       : 2
Format                                   : AC-3
Format/Info                              : Audio Coding 3
Mode extension                           : CM (complete main)
Codec ID                                 : 2000
Duration                                 : 1h 29mn
Bit rate mode                            : Constant
Bit rate                                 : 448 Kbps
Channel(s)                               : 6 channels
Channel positions                        : Front: L C R, Side: L R, LFE
Sampling rate                            : 48.0 KHz
Bit depth                                : 16 bits
Compression mode                         : Lossy
Stream size                              : 288 MiB (19%)
Alignment                                : Split accross interleaves
Interleave, duration                     : 42 ms (1.00 video frame)
Interleave, preload duration             : 500 ms


[/spoiler]

[/center]

Info: Per scaricare devi usare un client come uTorrent o Transmission
AnnounceURL
udp://tracker.coppersurfer.tk:6969/announce
Hash 523d521dc4a8e2b9cfe3582a5c329da692c3bd09
Peers seeds: 75 , leech: 14
Size 1.48 GB
Completato 1472x
Aggiunto 03.08.17 - 11:08:27
Uploader   robbyrs
Votazione (Voti: 1)


Condividi questo bittorrent:


html/blog:


bbcode/forum:




Aggiungi Commento


counter