* Dettagli Torrent   globale  | Commenti (0) 


- Scappa: Get Out (2017).H264.Italian.English.Ac3.5.1.sub.ita.eng.iCV-MIRCrew -


Download via torrent:
Categoria bittorrent BDRip
Descrizione
Get Out - Scappa: Get Out (2017).H264.Italian.English.Ac3.5.1.sub.ita.eng.iCV-MIRCrew


[center]by www.icv-crew.org


NO FOUND ONLY ORIGINAL RELEASE



My release is always in double track audio italian and Original audio
for select it use VLC or dvd player home
not use wmp

Scappa: Get Out (2017)

PRESENTI ANCHE i SOTTOTITOLI

ESTERNI IN SRT (ita/eng)







Titolo originale Get Out
Lingua originale inglese
Paese di produzione Stati Uniti d'America
Anno 2017
Durata 103 min[1]
Genere thriller, orrore, satirico
Regia Jordan Peele
Sceneggiatura Jordan Peele
Produttore Jason Blum, Jordan Peele, Edward H. Hamm Jr., Sean McKittrick
Produttore esecutivo Jeanette Brill, Raymond Mansfield, Shaun Redick, Couper Samuelson
Casa di produzione Blumhouse Productions, QC Entertainment
Distribuzione (Italia) Universal Pictures
Fotografia Toby Oliver
Montaggio Gregory Plotkin
Musiche Michael Abels
Scenografia Rusty Smith




   Daniel Kaluuya: Chris Washington
   Zailand Adams: Chris a 11 anni
   Allison Williams: Rose Armitage
   Bradley Whitford: Dean Armitage
   Catherine Keener: Missy Armitage
   Caleb Landry Jones: Jeremy Armitage
   Lil Rel Howery: Rod Williams
   Betty Gabriel: Georgina
   Marcus Henderson: Walter
   LaKeith Stanfield: Andre Hayworth / Logan King
   Stephen Root: Jim Hudson
   Erika Alexander: Detective Latoya




Il film si apre con Andre Hayworth, un giovane afroamericano, che si è perso in un quartiere desolato di notte fonda. Improvvisamente gli si avvicina una macchina bianca dal cui impianto stereo si sente la canzone Run, Rabbit, Run. Andre si innervosisce ulteriormente e tenta di allontanarsi facendo finta di niente, ma un individuo vestito di nero mascherato con un elmo da cavaliere medioevale esce dalla vettura e lo rapisce.......



It's time for a young African American to meet with his white girlfriend's parents for a weekend in their secluded estate in the woods, but before long, the friendly and polite ambience will give way to a nightmare.













[spoiler]
General
Unique ID                                : 288005724884865467395496830935987588243 (0xD8ABE28D76D1C88274CED53023230C93)
Complete name                            : Scappa Get Out (2017).H264.ita.eng.sub.ita.eng.iCV-MIRCrew.mkv
Format                                   : Matroska
Format version                           : Version 2
File size                                : 1.59 GiB
Duration                                 : 1h 44mn
Overall bit rate                         : 2 181 Kbps
Movie name                               : icv-MIRCrew
Encoded date                             : UTC 2017-08-02 16:39:12
Writing application                      : Lavf54.63.100
Writing library                          : Lavf54.63.100
COPYRIGHT                                : robbyrs
DATE                                     : 2017

Video
ID                                       : 1
Format                                   : AVC
Format/Info                              : Advanced Video Codec
Format profile                           : [email protected]
Format settings, CABAC                   : Yes
Format settings, ReFrames                : 2 frames
Codec ID                                 : V_MPEG4/ISO/AVC
Duration                                 : 1h 44mn
Bit rate                                 : 1 290 Kbps
Width                                    : 720 pixels
Height                                   : 300 pixels
Display aspect ratio                     : 2.40:1
Frame rate mode                          : Variable
Frame rate                               : 23.976 fps
Color space                              : YUV
Chroma subsampling                       : 4:2:0
Bit depth                                : 8 bits
Scan type                                : Progressive
Bits/(Pixel*Frame)                       : 0.249
Stream size                              : 924 MiB (57%)
Writing library                          : x264 core 130 r2273
Encoding settings                        : cabac=1 / ref=2 / deblock=1:0:0 / analyse=0x1:0x131 / me=hex / subme=7 / psy=1 / psy_rd=1.00:0.00 / mixed_ref=0 / me_range=16 / chroma_me=1 / trellis=1 / 8x8dct=0 / cqm=0 / deadzone=21,11 / fast_pskip=1 / chroma_qp_offset=-2 / threads=12 / lookahead_threads=2 / sliced_threads=0 / nr=0 / decimate=1 / interlaced=0 / bluray_compat=0 / constrained_intra=0 / bframes=3 / b_pyramid=0 / b_adapt=1 / b_bias=0 / direct=3 / weightb=1 / open_gop=0 / weightp=2 / keyint=230 / keyint_min=23 / scenecut=40 / intra_refresh=0 / rc_lookahead=40 / rc=abr / mbtree=1 / bitrate=1290 / ratetol=1.0 / qcomp=0.60 / qpmin=10 / qpmax=69 / qpstep=4 / vbv_maxrate=24000 / vbv_bufsize=24000 / nal_hrd=none / ip_ratio=1.40 / aq=1:1.00
Language                                 : Italian
Default                                  : Yes
Forced                                   : No
DURATION                                 : 01:44:05.114000000
NUMBER_OF_FRAMES                         : 149733
NUMBER_OF_BYTES                          : 5725190817
_STATISTICS_WRITING_APP                  : mkvmerge v9.9.0 ('Pick Up') 32bit
_STATISTICS_WRITING_DATE_UTC             : 2017-07-27 18:30:58
_STATISTICS_TAGS                         : BPS DURATION NUMBER_OF_FRAMES NUMBER_OF_BYTES

Audio #1
ID                                       : 2
Format                                   : AC-3
Format/Info                              : Audio Coding 3
Mode extension                           : CM (complete main)
Codec ID                                 : A_AC3
Duration                                 : 1h 44mn
Bit rate mode                            : Constant
Bit rate                                 : 448 Kbps
Channel(s)                               : 6 channels
Channel positions                        : Front: L C R, Side: L R, LFE
Sampling rate                            : 48.0 KHz
Bit depth                                : 16 bits
Compression mode                         : Lossy
Delay relative to video                  : 1mn 5s
Stream size                              : 334 MiB (21%)
Language                                 : Italian
Default                                  : No
Forced                                   : No
DURATION                                 : 01:44:05.184000000
NUMBER_OF_FRAMES                         : 195162
NUMBER_OF_BYTES                          : 499614720
_STATISTICS_WRITING_APP                  : mkvmerge v9.9.0 ('Pick Up') 32bit
_STATISTICS_WRITING_DATE_UTC             : 2017-07-27 18:30:58
_STATISTICS_TAGS                         : BPS DURATION NUMBER_OF_FRAMES NUMBER_OF_BYTES

Audio #2
ID                                       : 3
Format                                   : AC-3
Format/Info                              : Audio Coding 3
Mode extension                           : CM (complete main)
Codec ID                                 : A_AC3
Duration                                 : 1h 44mn
Bit rate mode                            : Constant
Bit rate                                 : 448 Kbps
Channel(s)                               : 6 channels
Channel positions                        : Front: L C R, Side: L R, LFE
Sampling rate                            : 48.0 KHz
Bit depth                                : 16 bits
Compression mode                         : Lossy
Delay relative to video                  : 1mn 5s
Stream size                              : 334 MiB (21%)
Language                                 : English
Default                                  : No
Forced                                   : No
DURATION                                 : 01:44:05.163000000
NUMBER_OF_FRAMES                         : 585484
NUMBER_OF_BYTES                          : 1177993876
_STATISTICS_WRITING_APP                  : mkvmerge v9.9.0 ('Pick Up') 32bit
_STATISTICS_WRITING_DATE_UTC             : 2017-07-27 18:30:58
_STATISTICS_TAGS                         : BPS DURATION NUMBER_OF_FRAMES NUMBER_OF_BYTES

Text #1
ID                                       : 4
Format                                   : ASS
Codec ID                                 : S_TEXT/ASS
Codec ID/Info                            : Advanced Sub Station Alpha
Compression mode                         : Lossless
Title                                    : FORCED
Language                                 : Italian
Default                                  : Yes
Forced                                   : No
DURATION                                 : 01:40:16.845000000
NUMBER_OF_FRAMES                         : 10
NUMBER_OF_BYTES                          : 229
_STATISTICS_WRITING_APP                  : mkvmerge v9.9.0 ('Pick Up') 32bit
_STATISTICS_WRITING_DATE_UTC             : 2017-07-27 18:30:58
_STATISTICS_TAGS                         : BPS DURATION NUMBER_OF_FRAMES NUMBER_OF_BYTES

Text #2
ID                                       : 5
Format                                   : ASS
Codec ID                                 : S_TEXT/ASS
Codec ID/Info                            : Advanced Sub Station Alpha
Compression mode                         : Lossless
Title                                    : REGOLARI
Language                                 : Italian
Default                                  : No
Forced                                   : No
DURATION                                 : 01:43:05.221000000
NUMBER_OF_FRAMES                         : 1188
NUMBER_OF_BYTES                          : 33806
_STATISTICS_WRITING_APP                  : mkvmerge v9.9.0 ('Pick Up') 32bit
_STATISTICS_WRITING_DATE_UTC             : 2017-07-27 18:30:58
_STATISTICS_TAGS                         : BPS DURATION NUMBER_OF_FRAMES NUMBER_OF_BYTES

Text #3
ID                                       : 6
Format                                   : ASS
Codec ID                                 : S_TEXT/ASS
Codec ID/Info                            : Advanced Sub Station Alpha
Compression mode                         : Lossless
Title                                    : NON UDENTI
Language                                 : English
Default                                  : No
Forced                                   : No
DURATION                                 : 01:38:54.428000000
NUMBER_OF_FRAMES                         : 1414
NUMBER_OF_BYTES                          : 41065
_STATISTICS_WRITING_APP                  : mkvmerge v9.9.0 ('Pick Up') 32bit
_STATISTICS_WRITING_DATE_UTC             : 2017-07-27 18:30:58
_STATISTICS_TAGS                         : BPS DURATION NUMBER_OF_FRAMES NUMBER_OF_BYTES

Menu
00:00:00.000                             : :Chapter 1
00:04:52.834                             : :Chapter 2
00:10:13.530                             : :Chapter 3
00:14:02.258                             : :Chapter 4
00:19:07.480                             : :Chapter 5
00:21:49.433                             : :Chapter 6
00:26:07.357                             : :Chapter 7
00:30:51.016                             : :Chapter 8
00:37:19.487                             : :Chapter 9
00:42:16.868                             : :Chapter 10
00:48:03.172                             : :Chapter 11
00:54:13.584                             : :Chapter 12
00:57:38.288                             : :Chapter 13
01:03:33.810                             : :Chapter 14
01:10:48.911                             : :Chapter 15
01:15:36.365                             : :Chapter 16
01:22:02.543                             : :Chapter 17
01:26:13.418                             : :Chapter 18
01:32:24.414                             : :Chapter 19
01:40:22.391                             : :Chapter 20


[/spoiler]

[/center]

Info: Per scaricare devi usare un client come uTorrent o Transmission
AnnounceURL
udp://tracker.coppersurfer.tk:6969/announce
Hash 0f6b2056b56d4eede6d20af7e0f0728729cf7174
Peers seeds: 88 , leech: 18
Size 1.59 GB
Completato 2240x
Aggiunto 03.08.17 - 10:08:38
Uploader   robbyrs
Votazione (Voti: 0)


Condividi questo bittorrent:


html/blog:


bbcode/forum:




Aggiungi Commento


counter