* Dettagli Torrent   globale  | Commenti (0) 


- Underworld - Saga (2003-2016).H264.Italian.English.Ac3.5.1.sub.ita.engiCV-MIRCrew -


Download via torrent:
Categoria bittorrent BDRip
Descrizione
Underworld - Saga (2003-2016).H264.Italian.English.Ac3.5.1.sub.ita.engiCV-MIRCrew

[center]by www.icv-crew.org


NO FOUND ONLY ORIGINAL RELEASE



My release is always in double track audio italian and Original audio
for select it use VLC or dvd player home
not use wmp

Underworld - Saga (2003-2016)

ON THIS RELEASE

Underworld – film del 2003 diretto da Len Wiseman
Underworld: Evolution – film del 2006 diretto da Len Wiseman
Underworld - La ribellione dei Lycans – film del 2009 diretto da Patrick Tatopoulos
Underworld - Il risveglio (Underworld: Awakening) – film del 2012 diretto da Måns Mårlind e Björn Stein
Underworld: Blood Wars (Underworld: Blood Wars) – film del 2016 diretto da Anna Foerster

*********************************


   1.1 Underworld (2003)
   1.2 Underworld: Evolution (2006)
   1.3 Underworld: Rise of the Lycans (2009)
   1.4 Underworld: Awakening (2012)
   1.5 Underworld: Blood Wars (2016)








*********************


****************************



Underworld è una serie di film horror d'azione diretti da Len Wiseman, Patrick Tatopoulos, Måns Mårlind, Björn Stein e Anna Foerster.



Underworld is a series of action horror films directed by Len Wiseman, Patrick Tatopoulos, Måns Mårlind, Björn Stein and Anna Foerster.













[spoiler]
General
Unique ID                                : 165338090841293846964367076472167639095 (0x7C62F54023219443238D8F713F44A837)
Complete name                            : General
Unique ID                                : 165338090841293846964367076472167639095 (0x7C62F54023219443238D8F713F44A837)
Complete name                            : Underworld - Blood Wars (2016)H264.ita.eng.sub.ita.eng.iCV-MIRCrew.mkv
Format                                   : Matroska
Format version                           : Version 2
File size                                : 1.39 GiB
Duration                                 : 1h 31mn
Overall bit rate                         : 2 167 Kbps
Movie name                               : www.icv-crew.org
Encoded date                             : UTC 2017-08-02 17:27:11
Writing application                      : Lavf54.63.100
Writing library                          : Lavf54.63.100
COPYRIGHT                                : robbyrs
DATE                                     : 2017

Video
ID                                       : 1
Format                                   : AVC
Format/Info                              : Advanced Video Codec
Format profile                           : [email protected]
Format settings, CABAC                   : Yes
Format settings, ReFrames                : 2 frames
Codec ID                                 : V_MPEG4/ISO/AVC
Duration                                 : 1h 31mn
Bit rate                                 : 1 228 Kbps
Nominal bit rate                         : 1 290 Kbps
Width                                    : 720 pixels
Height                                   : 300 pixels
Display aspect ratio                     : 2.40:1
Frame rate mode                          : Variable
Frame rate                               : 23.976 fps
Color space                              : YUV
Chroma subsampling                       : 4:2:0
Bit depth                                : 8 bits
Scan type                                : Progressive
Bits/(Pixel*Frame)                       : 0.237
Stream size                              : 804 MiB (57%)
Title                                    : TbZ
Writing library                          : x264 core 130 r2273
Encoding settings                        : cabac=1 / ref=2 / deblock=1:0:0 / analyse=0x1:0x131 / me=hex / subme=7 / psy=1 / psy_rd=1.00:0.00 / mixed_ref=0 / me_range=16 / chroma_me=1 / trellis=1 / 8x8dct=0 / cqm=0 / deadzone=21,11 / fast_pskip=1 / chroma_qp_offset=-2 / threads=12 / lookahead_threads=2 / sliced_threads=0 / nr=0 / decimate=1 / interlaced=0 / bluray_compat=0 / constrained_intra=0 / bframes=3 / b_pyramid=0 / b_adapt=1 / b_bias=0 / direct=3 / weightb=1 / open_gop=0 / weightp=2 / keyint=230 / keyint_min=23 / scenecut=40 / intra_refresh=0 / rc_lookahead=40 / rc=abr / mbtree=1 / bitrate=1290 / ratetol=1.0 / qcomp=0.60 / qpmin=10 / qpmax=69 / qpstep=4 / vbv_maxrate=24000 / vbv_bufsize=24000 / nal_hrd=none / ip_ratio=1.40 / aq=1:1.00
Language                                 : Italian
Default                                  : Yes
Forced                                   : No
DURATION                                 : 01:31:32.487000000
NUMBER_OF_FRAMES                         : 131688
NUMBER_OF_BYTES                          : 2097314206
_STATISTICS_WRITING_APP                  : mkvmerge v13.0.0 ('The Juggler') 64bit
_STATISTICS_WRITING_DATE_UTC             : 2017-07-26 07:26:13
_STATISTICS_TAGS                         : BPS DURATION NUMBER_OF_FRAMES NUMBER_OF_BYTES

Audio #1
ID                                       : 2
Format                                   : AC-3
Format/Info                              : Audio Coding 3
Mode extension                           : CM (complete main)
Codec ID                                 : A_AC3
Duration                                 : 1h 31mn
Bit rate mode                            : Constant
Bit rate                                 : 448 Kbps
Channel(s)                               : 6 channels
Channel positions                        : Front: L C R, Side: L R, LFE
Sampling rate                            : 48.0 KHz
Bit depth                                : 16 bits
Compression mode                         : Lossy
Delay relative to video                  : 1mn 5s
Stream size                              : 293 MiB (21%)
Language                                 : Italian
Default                                  : Yes
Forced                                   : No
DURATION                                 : 01:31:32.491000000
NUMBER_OF_FRAMES                         : 514921
NUMBER_OF_BYTES                          : 1036021052
_STATISTICS_WRITING_APP                  : mkvmerge v13.0.0 ('The Juggler') 64bit
_STATISTICS_WRITING_DATE_UTC             : 2017-07-26 07:26:13
_STATISTICS_TAGS                         : BPS DURATION NUMBER_OF_FRAMES NUMBER_OF_BYTES

Audio #2
ID                                       : 3
Format                                   : AC-3
Format/Info                              : Audio Coding 3
Mode extension                           : CM (complete main)
Codec ID                                 : A_AC3
Duration                                 : 1h 31mn
Bit rate mode                            : Constant
Bit rate                                 : 448 Kbps
Channel(s)                               : 6 channels
Channel positions                        : Front: L C R, Side: L R, LFE
Sampling rate                            : 48.0 KHz
Bit depth                                : 16 bits
Compression mode                         : Lossy
Delay relative to video                  : 1mn 5s
Stream size                              : 293 MiB (21%)
Language                                 : English
Default                                  : No
Forced                                   : No
DURATION                                 : 01:31:32.512000000
NUMBER_OF_FRAMES                         : 171641
NUMBER_OF_BYTES                          : 439400960
_STATISTICS_WRITING_APP                  : mkvmerge v13.0.0 ('The Juggler') 64bit
_STATISTICS_WRITING_DATE_UTC             : 2017-07-26 07:26:13
_STATISTICS_TAGS                         : BPS DURATION NUMBER_OF_FRAMES NUMBER_OF_BYTES

Text #1
ID                                       : 4
Format                                   : ASS
Codec ID                                 : S_TEXT/ASS
Codec ID/Info                            : Advanced Sub Station Alpha
Compression mode                         : Lossless

Language                                 : English
Default                                  : Yes
Forced                                   : No
DURATION                                 : 00:02:00.070000000
NUMBER_OF_FRAMES                         : 1
NUMBER_OF_BYTES                          : 0
_STATISTICS_WRITING_APP                  : mkvmerge v13.0.0 ('The Juggler') 64bit
_STATISTICS_WRITING_DATE_UTC             : 2017-07-26 07:26:13
_STATISTICS_TAGS                         : BPS DURATION NUMBER_OF_FRAMES NUMBER_OF_BYTES

Text #2
ID                                       : 5
Format                                   : VobSub
Codec ID                                 : S_VOBSUB
Codec ID/Info                            : The same subtitle format used on DVDs
Title                                    : ENG
Language                                 : English
Default                                  : No
Forced                                   : No
DURATION                                 : 01:30:31.031000000
NUMBER_OF_FRAMES                         : 820
NUMBER_OF_BYTES                          : 4580880
_STATISTICS_WRITING_APP                  : mkvmerge v13.0.0 ('The Juggler') 64bit
_STATISTICS_WRITING_DATE_UTC             : 2017-07-26 07:26:13
_STATISTICS_TAGS                         : BPS DURATION NUMBER_OF_FRAMES NUMBER_OF_BYTES

Text #3
ID                                       : 6
Format                                   : VobSub
Codec ID                                 : S_VOBSUB
Codec ID/Info                            : The same subtitle format used on DVDs
Title                                    : ITA
Language                                 : Italian
Default                                  : No
Forced                                   : No
DURATION                                 : 01:30:30.360000000
NUMBER_OF_FRAMES                         : 821
NUMBER_OF_BYTES                          : 4414293
_STATISTICS_WRITING_APP                  : mkvmerge v13.0.0 ('The Juggler') 64bit
_STATISTICS_WRITING_DATE_UTC             : 2017-07-26 07:26:13
_STATISTICS_TAGS                         : BPS DURATION NUMBER_OF_FRAMES NUMBER_OF_BYTES

Menu
00:00:00.000                             : :00:00:00.000
00:04:30.479                             : :00:04:30.479
00:09:25.315                             : :00:09:25.315
00:13:59.964                             : :00:13:59.964
00:18:56.010                             : :00:18:56.010
00:24:27.091                             : :00:24:27.091
00:31:15.957                             : :00:31:15.957
00:36:26.810                             : :00:36:26.810
00:42:17.034                             : :00:42:17.034
00:47:37.646                             : :00:47:37.646
00:52:22.181                             : :00:52:22.181
00:58:59.327                             : :00:58:59.327
01:04:31.659                             : :01:04:31.659
01:08:52.128                             : :01:08:52.128
01:13:47.131                             : :01:13:47.131
01:20:08.512                             : :01:20:08.512

[/spoiler]

[/center]

Info: Per scaricare devi usare un client come uTorrent o Transmission
AnnounceURL
udp://tracker.coppersurfer.tk:6969/announce
Hash 5053a19dc0f4482e675831d7420ceb6143c01395
Peers seeds: 60 , leech: 45
Size 7.76 GB
Completato 995x
Aggiunto 03.08.17 - 08:08:33
Uploader   robbyrs
Votazione (Voti: 0)


Condividi questo bittorrent:


html/blog:


bbcode/forum:




Aggiungi Commento


counter