* Dettagli Torrent   globale  | Commenti (1) 


- King Arthur - Il potere della spada (2017).H264.Italian.English.Ac3.5.1.sub.ita,eng.iCV-MIRCrew -


Download via torrent:
Categoria bittorrent BDRip
Descrizione
King Arthur: Legend of the Sword - King Arthur - Il potere della spada (2017).H264.Italian.English.Ac3.5.1.sub.ita,eng.iCV-MIRCrew


[center]by www.icv-crew.org


NO FOUND ONLY ORIGINAL RELEASE



My release is always in double track audio italian and Original audio
for select it use VLC or dvd player home
not use wmp

King Arthur - Il potere della spada - King Arthur: Legend of the Sword (2017)

PRESENTI ANCHE i SOTTOTITOLI

ESTERNI IN SRT (ita/eng)







Titolo originale King Arthur: Legend of the Sword
Lingua originale inglese
Paese di produzione Stati Uniti d'America, Regno Unito, Australia
Anno 2017
Durata 126 min
Rapporto 2,35 : 1
Genere avventura, azione, fantastico
Regia Guy Ritchie
Soggetto David Dobkin, Joby Harold
Sceneggiatura Joby Harold, Guy Ritchie, Lionel Wigram
Produttore Akiva Goldsman, Joby Harold, Guy Ritchie, Tory Tunnell, Lionel Wigram
Produttore esecutivo David Dobkin, Bruce Berman, Steven Mnuchin
Casa di produzione Safehouse Pictures, Village Roadshow Pictures, Warner Bros. Pictures, Ritchie/Wigram Productions, Weed Road Pictures
Distribuzione (Italia) Warner Bros. Pictures
Fotografia John Mathieson
Montaggio James Herbert
Musiche Daniel Pemberton
Scenografia Gemma Jackson




   Charlie Hunnam: Re Artù
   Àstrid Bergès-Frisbey: La Maga
   Jude Law: Vortigern
   Eric Bana: Uther Pendragon
   Djimon Hounsou: Sir Bedivere
   Aidan Gillen: "Grasso d'oca" Bill Wilson
   Freddie Fox: Rubio
   Tom Wu: George
   Kingsley Ben-Adir: Stecchino
   Neil Maskell: Mangiagalli
   Annabelle Wallis: Maggie
   Geoff Bell: John "la carogna"
   Poppy Delevingne: Igraine
   Millie Brady: Principessa Catia
   Peter Ferdinando: Mercia
   David Beckham: Sfregiato
   Michael McElhatton: Jack "l'occhio"
   Katie McGrath: Elsa




Mordred, un grandissimo mago e i suoi eserciti si scagliano contro Camelot, cercando di stabilire la dominazione dei maghi che cercavano di soggiogare l'umanità grazie alla magia. Uther Pendragon, re dei britannici, raggiunge il mago durante la battaglia, uccidendolo e distruggendo le sue forze, salvando Camelot. ...............



Robbed of his birthright, Arthur comes up the hard way in the back alleys of the city. But once he pulls the sword from the stone, he is forced to acknowledge his true legacy - whether he likes it or not.













[spoiler]
General
Unique ID                                : 148457630057661264977513659564886204200 (0x6FAFE646F2B304B734BE020A632A1F2
Complete name                            : King Arthur - Il potere della spada (2017).H264.ita.eng.sub.ita.eng.iCV-MIRCrew.mkv
Format                                   : Matroska
Format version                           : Version 2
File size                                : 1.94 GiB
Duration                                 : 2h 6mn
Overall bit rate                         : 2 196 Kbps
Movie name                               : www.icv-crew.org
Encoded date                             : UTC 2017-08-01 17:12:25
Writing application                      : Lavf54.63.100
Writing library                          : Lavf54.63.100
COPYRIGHT                                : robbyrs
DATE                                     : 2017

Video
ID                                       : 1
Format                                   : AVC
Format/Info                              : Advanced Video Codec
Format profile                           : [email protected]
Format settings, CABAC                   : Yes
Format settings, ReFrames                : 2 frames
Codec ID                                 : V_MPEG4/ISO/AVC
Duration                                 : 2h 6mn
Bit rate                                 : 1 290 Kbps
Width                                    : 720 pixels
Height                                   : 300 pixels
Display aspect ratio                     : 2.40:1
Frame rate mode                          : Variable
Frame rate                               : 23.976 fps
Color space                              : YUV
Chroma subsampling                       : 4:2:0
Bit depth                                : 8 bits
Scan type                                : Progressive
Bits/(Pixel*Frame)                       : 0.249
Stream size                              : 1.11 GiB (57%)
Writing library                          : x264 core 130 r2273
Encoding settings                        : cabac=1 / ref=2 / deblock=1:0:0 / analyse=0x1:0x131 / me=hex / subme=7 / psy=1 / psy_rd=1.00:0.00 / mixed_ref=0 / me_range=16 / chroma_me=1 / trellis=1 / 8x8dct=0 / cqm=0 / deadzone=21,11 / fast_pskip=1 / chroma_qp_offset=-2 / threads=12 / lookahead_threads=2 / sliced_threads=0 / nr=0 / decimate=1 / interlaced=0 / bluray_compat=0 / constrained_intra=0 / bframes=3 / b_pyramid=0 / b_adapt=1 / b_bias=0 / direct=3 / weightb=1 / open_gop=0 / weightp=2 / keyint=230 / keyint_min=23 / scenecut=40 / intra_refresh=0 / rc_lookahead=40 / rc=abr / mbtree=1 / bitrate=1290 / ratetol=1.0 / qcomp=0.60 / qpmin=10 / qpmax=69 / qpstep=4 / vbv_maxrate=24000 / vbv_bufsize=24000 / nal_hrd=none / ip_ratio=1.40 / aq=1:1.00
Language                                 : Italian
Default                                  : Yes
Forced                                   : No
DURATION                                 : 02:06:13.441000000
NUMBER_OF_FRAMES                         : 181581
NUMBER_OF_BYTES                          : 8003233349
_STATISTICS_WRITING_APP                  : mkvmerge v9.9.0 ('Pick Up') 32bit
_STATISTICS_WRITING_DATE_UTC             : 2017-07-29 02:14:45
_STATISTICS_TAGS                         : BPS DURATION NUMBER_OF_FRAMES NUMBER_OF_BYTES

Audio #1
ID                                       : 2
Format                                   : AC-3
Format/Info                              : Audio Coding 3
Mode extension                           : CM (complete main)
Codec ID                                 : A_AC3
Duration                                 : 2h 6mn
Bit rate mode                            : Constant
Bit rate                                 : 448 Kbps
Channel(s)                               : 6 channels
Channel positions                        : Front: L C R, Side: L R, LFE
Sampling rate                            : 48.0 KHz
Bit depth                                : 16 bits
Compression mode                         : Lossy
Delay relative to video                  : 1mn 5s
Stream size                              : 404 MiB (20%)
Language                                 : Italian
Default                                  : Yes
Forced                                   : No
DURATION                                 : 02:06:13.504000000
NUMBER_OF_FRAMES                         : 236672
NUMBER_OF_BYTES                          : 424116224
_STATISTICS_WRITING_APP                  : mkvmerge v9.9.0 ('Pick Up') 32bit
_STATISTICS_WRITING_DATE_UTC             : 2017-07-29 02:14:45
_STATISTICS_TAGS                         : BPS DURATION NUMBER_OF_FRAMES NUMBER_OF_BYTES

Audio #2
ID                                       : 3
Format                                   : AC-3
Format/Info                              : Audio Coding 3
Mode extension                           : CM (complete main)
Codec ID                                 : A_AC3
Duration                                 : 2h 6mn
Bit rate mode                            : Constant
Bit rate                                 : 448 Kbps
Channel(s)                               : 6 channels
Channel positions                        : Front: L C R, Side: L R, LFE
Sampling rate                            : 48.0 KHz
Bit depth                                : 16 bits
Compression mode                         : Lossy
Delay relative to video                  : 1mn 5s
Stream size                              : 404 MiB (20%)
Language                                 : English
Default                                  : No
Forced                                   : No
DURATION                                 : 02:06:13.504000000
NUMBER_OF_FRAMES                         : 236672
NUMBER_OF_BYTES                          : 605880320
_STATISTICS_WRITING_APP                  : mkvmerge v9.9.0 ('Pick Up') 32bit
_STATISTICS_WRITING_DATE_UTC             : 2017-07-29 02:14:45
_STATISTICS_TAGS                         : BPS DURATION NUMBER_OF_FRAMES NUMBER_OF_BYTES

Text #1
ID                                       : 4
Format                                   : ASS
Codec ID                                 : S_TEXT/ASS
Codec ID/Info                            : Advanced Sub Station Alpha
Compression mode                         : Lossless
Title                                    : FORCED
Language                                 : Italian
Default                                  : Yes
Forced                                   : No
DURATION                                 : 02:04:43.850000000
NUMBER_OF_FRAMES                         : 5
NUMBER_OF_BYTES                          : 184
_STATISTICS_WRITING_APP                  : mkvmerge v9.9.0 ('Pick Up') 32bit
_STATISTICS_WRITING_DATE_UTC             : 2017-07-29 02:14:45
_STATISTICS_TAGS                         : BPS DURATION NUMBER_OF_FRAMES NUMBER_OF_BYTES

Text #2
ID                                       : 5
Format                                   : ASS
Codec ID                                 : S_TEXT/ASS
Codec ID/Info                            : Advanced Sub Station Alpha
Compression mode                         : Lossless
Title                                    : REGOLARI
Language                                 : Italian
Default                                  : No
Forced                                   : No
DURATION                                 : 02:04:43.850000000
NUMBER_OF_FRAMES                         : 1461
NUMBER_OF_BYTES                          : 38291
_STATISTICS_WRITING_APP                  : mkvmerge v9.9.0 ('Pick Up') 32bit
_STATISTICS_WRITING_DATE_UTC             : 2017-07-29 02:14:45
_STATISTICS_TAGS                         : BPS DURATION NUMBER_OF_FRAMES NUMBER_OF_BYTES

Text #3
ID                                       : 6
Format                                   : ASS
Codec ID                                 : S_TEXT/ASS
Codec ID/Info                            : Advanced Sub Station Alpha
Compression mode                         : Lossless
Title                                    : NON UDENTI
Language                                 : English
Default                                  : No
Forced                                   : No
DURATION                                 : 02:04:12.111000000
NUMBER_OF_FRAMES                         : 1452
NUMBER_OF_BYTES                          : 43447
_STATISTICS_WRITING_APP                  : mkvmerge v9.9.0 ('Pick Up') 32bit
_STATISTICS_WRITING_DATE_UTC             : 2017-07-29 02:14:45
_STATISTICS_TAGS                         : BPS DURATION NUMBER_OF_FRAMES NUMBER_OF_BYTES

Menu
00:00:00.000                             : :00:00:00.000
00:12:43.220                             : :00:12:43.220
00:21:05.346                             : :00:21:05.346
00:32:32.659                             : :00:32:32.659
00:43:09.378                             : :00:43:09.378
00:56:47.987                             : :00:56:47.987
01:06:48.545                             : :01:06:48.545
01:14:13.030                             : :01:14:13.030
01:23:44.394                             : :01:23:44.394
01:36:36.791                             : :01:36:36.791
01:46:57.243                             : :01:46:57.243
01:58:58.797                             : :01:58:58.797



[/spoiler]

[/center]

Info: Per scaricare devi usare un client come uTorrent o Transmission
AnnounceURL
udp://tracker.coppersurfer.tk:6969/announce
Hash 7082b74967de2847466f4f065196a85f5850c0fa
Peers seeds: 165 , leech: 25
Size 1.94 GB
Completato 6210x
Aggiunto 02.08.17 - 06:08:25
Uploader   robbyrs
Votazione (Voti: 0)


Condividi questo bittorrent:


html/blog:


bbcode/forum:




Aggiungi Commento
Ultimi commenti
  
Grazie!!!!
02/08 16.03
Tutti commenti (1)


counter