* Dettagli Torrent   globale  | Commenti (0) 


- King.Arthur.Il.Potere.Della.Spada.2017.iTA-ENG.Bluray.1080p.x264-CYBER.mkv -


Download via torrent:
Categoria bittorrent BDRip
Descrizione
[center]

GIUSEPPEiCV & LITTLELINX
HANNO IL PIACERE DI PRESENTARE

King Arthur
Il Potere Della Spada

BDRIP 1080p
ITA - ENG AC3 5.1

Trovi tutte le nostre release su
IL CORSARO VERDE
www.icv-crew.org





.: Dati :.

DATA USCITA: 10 maggio 2017
GENERE: Fantasy, Avventura, Azione, Storico
ANNO: 2017
REGIA: Guy Ritchie
ATTORI: Charlie Hunnam, Astrid Berges-Frisbey, Eric Bana, Jude Law, Annabelle Wallis, Katie McGrath, Aidan Gillen, Millie Brady, David Beckham, Djimon Hounsou, Poppy Delevingne, Mikael Persbrandt, Peter Ferdinando
PAESE: USA
DURATA: 126 Min
DISTRIBUZIONE: Warner Bros.


Trama:Robbed of his birthright, Arthur comes up the hard way in the back alleys of the city. But once he pulls the sword from the stone, he is forced to acknowledge his true legacy - whether he likes it or not.

King Arthur - Il potere della spada è una rivisitazione in chiave fantastica della celebre leggenda, firmata da Guy Ritchie. Cresciuto nei vicoli oscuri e dimenticati di Londonium al seguito di una scapestrata banda, inconsapevole del suo lignaggio, il giovane Arthur (Charlie Hunnam) estrae la spada leggendaria dalla roccia in cui è incastonata, diventando così il legittimo proprietario di Excalibur, nonché il sovrano predestinato del regno. Nel percorso per imparare a padroneggiare il potere della magica lama e rivendicare il trono usurpato, si invaghisce di una misteriosa ragazza di nome Guinevere (l'attrice e  modella spagnola Astrid Berges-Frisbey) e si unisce alla Resistenza nella lotta al tiranno Vortigern (Jude Law), che si è impadronito della sua corona ed ha assassinato i suoi genitori. Lo spietato signore della guerra non è l'unico avversario che Arthur deve affrontare, prima ancora dovrà sconfiggere i propri demoni interiori e riuscire a unire il popolo sotto la sua guida, se vuole esaudire le leggende del passato e diventare egli stesso immortale.

.: Screenshot :.



.: Caratteristiche Tecniche :.

[Spoiler]
King.Arthur.Il.Potere.Della.Spada.2017.iTA-ENG.Bluray.1080p.x264-CYBER.mkv
Format                                   : Matroska
Format version                           : Version 2
File size                                : 8.42 GiB
Duration                                 : 2h 6mn
Overall bit rate                         : 9 544 Kbps
Encoded date                             : UTC 2017-07-29 02:14:45
Writing application                      : mkvmerge v9.9.0 ('Pick Up') 32bit
Writing library                          : libebml v1.3.4 + libmatroska v1.4.5
DURATION                                 : 02:04:12.111000000
NUMBER_OF_FRAMES                         : 1452
NUMBER_OF_BYTES                          : 43447
_STATISTICS_WRITING_APP                  : mkvmerge v9.9.0 ('Pick Up') 32bit
_STATISTICS_WRITING_DATE_UTC             : 2017-07-29 02:14:45
_STATISTICS_TAGS                         : BPS DURATION NUMBER_OF_FRAMES NUMBER_OF_BYTES
Attachment                               : Yes

Video
ID                                       : 1
Format                                   : AVC
Format/Info                              : Advanced Video Codec
Format profile                           : [email protected]
Format settings, CABAC                   : Yes
Format settings, ReFrames                : 5 frames
Codec ID                                 : V_MPEG4/ISO/AVC
Duration                                 : 2h 6mn
Bit rate                                 : 8 266 Kbps
Width                                    : 1 920 pixels
Height                                   : 800 pixels
Display aspect ratio                     : 2.40:1
Frame rate                               : 23.976 fps
Color space                              : YUV
Chroma subsampling                       : 4:2:0
Bit depth                                : 8 bits
Scan type                                : Progressive
Bits/(Pixel*Frame)                       : 0.224
Stream size                              : 7.29 GiB (87%)
Writing library                          : x264 core 148 r2744 b97ae06
Language                                 : English
Default                                  : Yes
Forced                                   : No
DURATION                                 : 02:06:13.441000000
NUMBER_OF_FRAMES                         : 181581
NUMBER_OF_BYTES                          : 8003233349
_STATISTICS_WRITING_APP                  : mkvmerge v9.9.0 ('Pick Up') 32bit
_STATISTICS_WRITING_DATE_UTC             : 2017-07-29 02:14:45
_STATISTICS_TAGS                         : BPS DURATION NUMBER_OF_FRAMES NUMBER_OF_BYTES

Audio #1
ID                                       : 2
Format                                   : AC-3
Format/Info                              : Audio Coding 3
Mode extension                           : CM (complete main)
Codec ID                                 : A_AC3
Duration                                 : 2h 6mn
Bit rate mode                            : Constant
Bit rate                                 : 448 Kbps
Channel(s)                               : 6 channels
Channel positions                        : Front: L C R, Side: L R, LFE
Sampling rate                            : 48.0 KHz
Bit depth                                : 16 bits
Compression mode                         : Lossy
Stream size                              : 404 MiB (5%)
Language                                 : Italian
Default                                  : Yes
Forced                                   : No

Audio #2
ID                                       : 3
Format                                   : AC-3
Format/Info                              : Audio Coding 3
Mode extension                           : CM (complete main)
Codec ID                                 : A_AC3
Duration                                 : 2h 6mn
Bit rate mode                            : Constant
Bit rate                                 : 640 Kbps
Channel(s)                               : 6 channels
Channel positions                        : Front: L C R, Side: L R, LFE
Sampling rate                            : 48.0 KHz
Bit depth                                : 16 bits
Compression mode                         : Lossy
Stream size                              : 578 MiB (7%)
Language                                 : English
Default                                  : No
Forced                                   : No

Text #1
ID                                       : 4
Format                                   : UTF-8
Codec ID                                 : S_TEXT/UTF8
Codec ID/Info                            : UTF-8 Plain Text
Title                                    : FORCED
Language                                 : Italian
Default                                  : Yes
Forced                                   : No

Text #2
ID                                       : 5
Format                                   : UTF-8
Codec ID                                 : S_TEXT/UTF8
Codec ID/Info                            : UTF-8 Plain Text
Title                                    : REGOLARI
Language                                 : Italian
Default                                  : No
Forced                                   : No

Text #3
ID                                       : 6
Format                                   : UTF-8
Codec ID                                 : S_TEXT/UTF8
Codec ID/Info                            : UTF-8 Plain Text
Title                                    : NON UDENTI
Language                                 : English
Default                                  : No
Forced                                   : No

Menu
00:00:00.000                             : en:00:00:00.000
00:12:43.220                             : en:00:12:43.220
00:21:05.346                             : en:00:21:05.346
00:32:32.659                             : en:00:32:32.659
00:43:09.378                             : en:00:43:09.378
00:56:47.987                             : en:00:56:47.987
01:06:48.545                             : en:01:06:48.545
01:14:13.030                             : en:01:14:13.030
01:23:44.394                             : en:01:23:44.394
01:36:36.791                             : en:01:36:36.791
01:46:57.243                             : en:01:46:57.243
01:58:58.797                             : en:01:58:58.797


[/spoiler]


[center]RINGRAZIAMENTI




RESTATE IN SEED ALTRIMENTI

[/center]


Info: Per scaricare devi usare un client come uTorrent o Transmission
AnnounceURL
udp://tracker.opentrackr.org:1337/announce
Hash 1e5d46c6a8d7a00133ce730d0809d18c4c095f65
Peers seeds: 159 , leech: 76
Size 8.42 GB
Completato 3639x
Aggiunto 31.07.17 - 11:07:19
Uploader   ppb1
Votazione (Voti: 1)


Condividi questo bittorrent:


html/blog:


bbcode/forum:




Aggiungi Commento


counter