* Dettagli Torrent   globale  | Commenti (0) 


- Le vergini di Dunwich (1970).Italian.English.Ac3.sub.ita.iCV-MIRCrew -


Download via torrent:
Categoria bittorrent BDRip
Descrizione
The Dunwich Horror - Le vergini di Dunwich (1970).Italian.English.Ac3.sub.ita.iCV-MIRCrew

[center]by www.icv-crew.org


NO FOUND ONLY ORIGINAL RELEASE



My release is always in double track audio italian and Original audio
for select it use VLC or dvd player home
not use wmp

Le vergini di Dunwich - The Dunwich Horror (1970)








   GENERE: Horror
   ANNO: 1970
   REGIA: Daniel Haller
   
   PAESE: USA
   DURATA: 90 Min
   DISTRIBUZIONE: ORANGE (1976)



Sandra Dee, Dean Stockwell, Ed Begley, Lloyd Bochner, Sam Jaffe, Joanne Moore Jordan, Donna Baccala, Jason Wingreen



Docente di filosofia, il professor Henry Harmitage è conferenziere universitario assistito da Elizabeth e Nancy. Quest'ultima viene colpita dal fascino del giovane Wilbur Whaterley, ultimo rampollo di una nobile famiglia alla quale la gente di Dunwich lega fosche leggende e terribili delitti................



Wilbur Whateley pops over to the Arkham Miskatonic University to borrow the legendary Necronomicon and Sandra Dee. But little does anyone know, Whateley isn't quite human..












[spoiler]
General
Complete name                            : Le vergini di Dunwich - The Dunwich Horror (1970).ita.eng.sub.ita.iCV-MIRCrew.avi
Format                                   : AVI
Format/Info                              : Audio Video Interleave
File size                                : 1.38 GiB
Duration                                 : 1h 27mn
Overall bit rate mode                    : Variable
Overall bit rate                         : 2 256 Kbps
Writing application                      : VirtualDubMod 1.5.10.2 (build 2540/release)
Writing library                          : VirtualDubMod build 2540/release

Video
ID                                       : 0
Format                                   : MPEG-4 Visual
Format profile                           : Advanced [email protected]
Format settings, BVOP                    : 1
Format settings, QPel                    : No
Format settings, GMC                     : No warppoints
Format settings, Matrix                  : Custom
Codec ID                                 : XVID
Codec ID/Hint                            : XviD
Duration                                 : 1h 27mn
Bit rate                                 : 1 915 Kbps
Width                                    : 720 pixels
Height                                   : 400 pixels
Display aspect ratio                     : 16:9
Frame rate                               : 23.976 fps
Color space                              : YUV
Chroma subsampling                       : 4:2:0
Bit depth                                : 8 bits
Scan type                                : Progressive
Compression mode                         : Lossy
Bits/(Pixel*Frame)                       : 0.277
Stream size                              : 1.17 GiB (85%)
Writing library                          : XviD 1.2.0.dev47 (UTC 2006-11-01)

Audio #1
ID                                       : 1
Format                                   : MPEG Audio
Format version                           : Version 1
Format profile                           : Layer 3
Mode                                     : Joint stereo
Mode extension                           : MS Stereo
Codec ID                                 : 55
Codec ID/Hint                            : MP3
Duration                                 : 1h 27mn
Bit rate mode                            : Variable
Bit rate                                 : 192 Kbps
Channel(s)                               : 2 channels
Sampling rate                            : 48.0 KHz
Compression mode                         : Lossy
Stream size                              : 120 MiB (9%)
Alignment                                : Aligned on interleaves
Interleave, duration                     : 24 ms (0.58 video frame)
Interleave, preload duration             : 488 ms
Writing library                          : LAME3.97
Language                                 : Italian

Audio #2
ID                                       : 2
Format                                   : MPEG Audio
Format version                           : Version 1
Format profile                           : Layer 3
Mode                                     : Joint stereo
Mode extension                           : MS Stereo
Codec ID                                 : 55
Codec ID/Hint                            : MP3
Duration                                 : 1h 27mn
Bit rate mode                            : Variable
Bit rate                                 : 128 Kbps
Channel(s)                               : 2 channels
Sampling rate                            : 48.0 KHz
Compression mode                         : Lossy
Stream size                              : 80.2 MiB (6%)
Alignment                                : Aligned on interleaves
Interleave, duration                     : 24 ms (0.58 video frame)
Interleave, preload duration             : 492 ms
Writing library                          : LAME3.97
Language                                 : English


[/spoiler]

[/center]

Info: Per scaricare devi usare un client come uTorrent o Transmission
AnnounceURL
udp://tracker.coppersurfer.tk:6969/announce
Hash 9b140d45f93abf12543919707e8b20795a96c95f
Peers seeds: 36 , leech: 8
Size 1.38 GB
Completato 643x
Aggiunto 30.07.17 - 09:07:54
Uploader   robbyrs
Votazione (Voti: 1)


Condividi questo bittorrent:


html/blog:


bbcode/forum:




Aggiungi Commento


counter