* Dettagli Torrent   globale  | Commenti (0) 


- Goshu il violoncellista (1982).H264.Italian.Jpn.Ac3.sub.ita.iCV-MIRCrew -


Download via torrent:
Categoria bittorrent Anime
Descrizione
Goshu il violoncellista (1982).H264.Italian.Jpn.Ac3.sub.ita.iCV-MIRCrew

[center]by www.icv-crew.org


NO FOUND ONLY ORIGINAL RELEASE



My release is always in double track audio italian and Original audio
for select it use VLC or dvd player home
not use wmp

Goshu il violoncellista - ?????????
(Sero hiki no G?shu) (1982)







Genere fantastico
Autore Kenji Miyazawa
Regia Isao Takahata
Char. design Toshitsugu Saida
Dir. artistica Takamura Mukuo
Musiche Michiyo Mamiya (originali), Ludwig van Beethoven
Studio Oh! Production
1ª edizione 23 gennaio 1982
Aspect ratio 4:3
Durata 59 min



Naomi Watts, Jacob Tremblay, Oliver Platt, Charlie Heaton, David Cubitt, Tim Post, Crystal Balint, Clémentine Poidatz



La storia è ambientata nei primi anni del '900. Goshu è un ragazzo che vive da solo in una piccola casa di campagna fuori città e suona il violoncello nell'orchestra locale. Purtroppo Goshu non è un grande musicista, ed una sera durante le prove il direttore perde addirittura la pazienza a causa del suo modo di suonare, che danneggia l'intera orchestra.....................



A cellist in a small orchestra receives help from animals to help him practice his music.











[spoiler]
General
Unique ID                                : 199456954884730796586005214177880848006 (0x960E031FBA5939CC332DAAE282CA3686)
Complete name                            : Goshu il violoncellista (1982).H264.ita.jpn.sub.ita.iCV-MIRCrew.mkv
Format                                   : Matroska
Format version                           : Version 2
File size                                : 738 MiB
Duration                                 : 1h 1mn
Overall bit rate                         : 1 677 Kbps
Encoded date                             : UTC 2017-06-23 18:09:45
Writing application                      : Lavf54.63.100
Writing library                          : Lavf54.63.100
COPYRIGHT                                : robbyrs

Video
ID                                       : 1
Format                                   : AVC
Format/Info                              : Advanced Video Codec
Format profile                           : [email protected]
Format settings, CABAC                   : Yes
Format settings, ReFrames                : 2 frames
Codec ID                                 : V_MPEG4/ISO/AVC
Duration                                 : 1h 1mn
Bit rate                                 : 1 290 Kbps
Width                                    : 688 pixels
Height                                   : 496 pixels
Display aspect ratio                     : 4:3
Frame rate mode                          : Variable
Frame rate                               : 23.976 fps
Color space                              : YUV
Chroma subsampling                       : 4:2:0
Bit depth                                : 8 bits
Scan type                                : Progressive
Bits/(Pixel*Frame)                       : 0.158
Stream size                              : 554 MiB (75%)
Writing library                          : x264 core 130 r2273
Encoding settings                        : cabac=1 / ref=2 / deblock=1:0:0 / analyse=0x1:0x131 / me=hex / subme=7 / psy=1 / psy_rd=1.00:0.00 / mixed_ref=0 / me_range=16 / chroma_me=1 / trellis=1 / 8x8dct=0 / cqm=0 / deadzone=21,11 / fast_pskip=1 / chroma_qp_offset=-2 / threads=12 / lookahead_threads=2 / sliced_threads=0 / nr=0 / decimate=1 / interlaced=0 / bluray_compat=0 / constrained_intra=0 / bframes=3 / b_pyramid=0 / b_adapt=1 / b_bias=0 / direct=3 / weightb=1 / open_gop=0 / weightp=2 / keyint=230 / keyint_min=23 / scenecut=40 / intra_refresh=0 / rc_lookahead=40 / rc=abr / mbtree=1 / bitrate=1290 / ratetol=1.0 / qcomp=0.60 / qpmin=10 / qpmax=69 / qpstep=4 / vbv_maxrate=24000 / vbv_bufsize=24000 / nal_hrd=none / ip_ratio=1.40 / aq=1:1.00
Default                                  : Yes
Forced                                   : Yes
DURATION                                 : 01:01:30.979000000
NUMBER_OF_FRAMES                         : 88495
NUMBER_OF_BYTES                          : 2389632061
_STATISTICS_WRITING_APP                  : mkvmerge v9.3.1 ('Mask Machine') 64bit
_STATISTICS_WRITING_DATE_UTC             : 2016-08-25 20:55:45
_STATISTICS_TAGS                         : BPS DURATION NUMBER_OF_FRAMES NUMBER_OF_BYTES

Audio #1
ID                                       : 2
Format                                   : AC-3
Format/Info                              : Audio Coding 3
Mode extension                           : CM (complete main)
Codec ID                                 : A_AC3
Duration                                 : 1h 1mn
Bit rate mode                            : Constant
Bit rate                                 : 192 Kbps
Channel(s)                               : 2 channels
Channel positions                        : Front: L R
Sampling rate                            : 48.0 KHz
Bit depth                                : 16 bits
Compression mode                         : Lossy
Delay relative to video                  : 1mn 5s
Stream size                              : 84.5 MiB (11%)
Language                                 : Italian
Default                                  : Yes
Forced                                   : No
DURATION                                 : 01:01:30.997000000
NUMBER_OF_FRAMES                         : 105972
NUMBER_OF_BYTES                          : 88583936
_STATISTICS_WRITING_APP                  : mkvmerge v9.3.1 ('Mask Machine') 64bit
_STATISTICS_WRITING_DATE_UTC             : 2016-08-25 20:55:45
_STATISTICS_TAGS                         : BPS DURATION NUMBER_OF_FRAMES NUMBER_OF_BYTES

Audio #2
ID                                       : 3
Format                                   : AC-3
Format/Info                              : Audio Coding 3
Mode extension                           : CM (complete main)
Codec ID                                 : A_AC3
Duration                                 : 1h 1mn
Bit rate mode                            : Constant
Bit rate                                 : 192 Kbps
Channel(s)                               : 2 channels
Channel positions                        : Front: L R
Sampling rate                            : 48.0 KHz
Bit depth                                : 16 bits
Compression mode                         : Lossy
Delay relative to video                  : 1mn 5s
Stream size                              : 84.5 MiB (11%)
Language                                 : Japanese
Default                                  : No
Forced                                   : No
DURATION                                 : 01:01:31.008000000
NUMBER_OF_FRAMES                         : 115344
NUMBER_OF_BYTES                          : 88584192
_STATISTICS_WRITING_APP                  : mkvmerge v9.3.1 ('Mask Machine') 64bit
_STATISTICS_WRITING_DATE_UTC             : 2016-08-25 20:55:45
_STATISTICS_TAGS                         : BPS DURATION NUMBER_OF_FRAMES NUMBER_OF_BYTES

Text #1
ID                                       : 4
Format                                   : ASS
Codec ID                                 : S_TEXT/ASS
Codec ID/Info                            : Advanced Sub Station Alpha
Compression mode                         : Lossless
Title                                    : Cartelli
Language                                 : Italian
Default                                  : Yes
Forced                                   : No
DURATION                                 : 00:59:31.640000000
NUMBER_OF_FRAMES                         : 19
NUMBER_OF_BYTES                          : 1836
_STATISTICS_WRITING_APP                  : mkvmerge v9.3.1 ('Mask Machine') 64bit
_STATISTICS_WRITING_DATE_UTC             : 2016-08-25 20:55:45
_STATISTICS_TAGS                         : BPS DURATION NUMBER_OF_FRAMES NUMBER_OF_BYTES

Text #2
ID                                       : 5
Format                                   : ASS
Codec ID                                 : S_TEXT/ASS
Codec ID/Info                            : Advanced Sub Station Alpha
Compression mode                         : Lossless
Title                                    : Dialoghi [ASS]
Language                                 : Italian
Default                                  : No
Forced                                   : No
DURATION                                 : 00:59:33.640000000
NUMBER_OF_FRAMES                         : 307
NUMBER_OF_BYTES                          : 18911
_STATISTICS_WRITING_APP                  : mkvmerge v9.3.1 ('Mask Machine') 64bit
_STATISTICS_WRITING_DATE_UTC             : 2016-08-25 20:55:45
_STATISTICS_TAGS                         : BPS DURATION NUMBER_OF_FRAMES NUMBER_OF_BYTES

Text #3
ID                                       : 6
Format                                   : ASS
Codec ID                                 : S_TEXT/ASS
Codec ID/Info                            : Advanced Sub Station Alpha
Compression mode                         : Lossless
Title                                    : Dialoghi [SRT]
Language                                 : Italian
Default                                  : No
Forced                                   : No
DURATION                                 : 00:59:31.640000000
NUMBER_OF_FRAMES                         : 305
NUMBER_OF_BYTES                          : 9953
_STATISTICS_WRITING_APP                  : mkvmerge v9.3.1 ('Mask Machine') 64bit
_STATISTICS_WRITING_DATE_UTC             : 2016-08-25 20:55:45
_STATISTICS_TAGS                         : BPS DURATION NUMBER_OF_FRAMES NUMBER_OF_BYTES

Menu
00:00:00.000                             : :Intro
00:01:31.508                             : :Goshu il violoncellista
00:59:22.976                             : :FINE


[/spoiler]

[/center]

Info: Per scaricare devi usare un client come uTorrent o Transmission
AnnounceURL
udp://tracker.coppersurfer.tk:6969/announce
Hash 10c1e7dad3c4c3b262941302e369eb172c4369ff
Peers seeds: 11 , leech: 0
Size 738.09 MB
Completato 96x
Aggiunto 30.07.17 - 09:07:21
Uploader   robbyrs
Votazione (Voti: 0)


Condividi questo bittorrent:


html/blog:


bbcode/forum:




Aggiungi Commento


counter