* Dettagli Torrent   globale  | Commenti (0) 


- Upside Down (2013).H264.Italian.English.Ac3.5.1.sub.ita.iCV-MIRCrew -


Download via torrent:
Categoria bittorrent BDRip
Descrizione
Upside Down (2013).H264.Italian.English.Ac3.5.1.sub.ita.iCV-MIRCrew


[center]by www.icv-crew.org


NO FOUND ONLY ORIGINAL RELEASE



My release is always in double track audio italian and Original audio
for select it use VLC or dvd player home
not use wmp

Upside Down (2013)







   DATA USCITA: 28 febbraio 2013
   GENERE: Drammatico, Sentimentale, Fantascienza
   ANNO: 2013
   REGIA: Juan Solanas
   PAESE: Canada, Francia
   DURATA: 107 Min
   FORMATO: 2.35 : 1
   DISTRIBUZIONE: Notorious Pictures



Kirsten Dunst, Jim Sturgess, Larry Day, Timothy Spall, Heidi Hawkins, Don Jordan, Holly O'Brien, John Maclaren, Elliott Larson, Vincent Messina, Vlasta Vrana, James Kidnie, Nicholas Rose, Kate Trotter, Paul Don



Guardate verso il cielo e preparatevi a sgranare gli occhi: città, foreste e oceani, capovolti sopra le vostre teste. Due mondi tanto vicini, quanto irraggiungibili e ai cui abitanti è proibito interagire. Adam (Jim Sturgess) appartiene al mondo di sotto, Eden (Kirsten Dunst) a quello di sopra. Il loro errore sarà quello di innamorarsi rischiando di incrinare per sempre le leggi dell’universo



Adam and Eden fell in love as teens despite the fact that they live on twinned worlds with gravities that pull in opposite directions. Ten years after a forced separation, Adam sets out on a dangerous quest to reconnect with his love.











[spoiler]
General
Unique ID                                : 164652346945207484013314233110404218130 (0x7BDEE37753CE5C9779E299DDD7E33D12)
Complete name                            : Upside Down (2013).H264.ita.eng.sub.ita.iCV-MIRCrew.mkv
Format                                   : Matroska
Format version                           : Version 2
File size                                : 1.56 GiB
Duration                                 : 1h 43mn
Overall bit rate                         : 2 152 Kbps
Encoded date                             : UTC 2017-06-05T11:11:32Z
Writing application                      : HandBrake 0.10.5 2016021100
Writing library                          : Lavf55.12.0

Video
ID                                       : 1
Format                                   : AVC
Format/Info                              : Advanced Video Codec
Format profile                           : [email protected]
Format settings, CABAC                   : Yes
Format settings, ReFrames                : 4 frames
Codec ID                                 : V_MPEG4/ISO/AVC
Duration                                 : 1h 43mn
Bit rate                                 : 1 213 Kbps
Nominal bit rate                         : 1 290 Kbps
Width                                    : 720 pixels
Height                                   : 304 pixels
Display aspect ratio                     : 2.35:1
Frame rate mode                          : Variable
Frame rate                               : 25.000 fps
Color space                              : YUV
Chroma subsampling                       : 4:2:0
Bit depth                                : 8 bits
Scan type                                : Progressive
Bits/(Pixel*Frame)                       : 0.222
Stream size                              : 900 MiB (56%)
Writing library                          : x264 core 142 r2479 dd79a61
Encoding settings                        : cabac=1 / ref=1 / deblock=1:0:0 / analyse=0x1:0x111 / me=hex / subme=2 / psy=1 / psy_rd=1.00:0.00 / mixed_ref=0 / me_range=16 / chroma_me=1 / trellis=0 / 8x8dct=0 / cqm=0 / deadzone=21,11 / fast_pskip=1 / chroma_qp_offset=0 / threads=3 / lookahead_threads=1 / sliced_threads=0 / nr=0 / decimate=1 / interlaced=0 / bluray_compat=0 / constrained_intra=0 / bframes=3 / b_pyramid=2 / b_adapt=1 / b_bias=0 / direct=1 / weightb=1 / open_gop=0 / weightp=1 / keyint=250 / keyint_min=25 / scenecut=40 / intra_refresh=0 / rc_lookahead=10 / rc=abr / mbtree=1 / bitrate=1290 / ratetol=1.0 / qcomp=0.60 / qpmin=0 / qpmax=69 / qpstep=4 / vbv_maxrate=20000 / vbv_bufsize=25000 / nal_hrd=none / filler=0 / ip_ratio=1.40 / aq=1:1.00
Default                                  : Yes
Forced                                   : No
Color primaries                          : BT.470-6 System B, BT.470-6 System G, BT.601-6 625, BT.1358 625, BT.1700 625 PAL, BT.1700 625 SECAM
Transfer characteristics                 : BT.709-5, BT.1361
Matrix coefficients                      : BT.601-6 525, BT.1358 525, BT.1700 NTSC, SMPTE 170M

Audio #1
ID                                       : 2
Format                                   : AC-3
Format/Info                              : Audio Coding 3
Mode extension                           : CM (complete main)
Codec ID                                 : A_AC3
Duration                                 : 1h 43mn
Bit rate mode                            : Constant
Bit rate                                 : 448 Kbps
Channel(s)                               : 6 channels
Channel positions                        : Front: L C R, Side: L R, LFE
Sampling rate                            : 48.0 KHz
Bit depth                                : 16 bits
Compression mode                         : Lossy
Delay relative to video                  : 1mn 5s
Stream size                              : 333 MiB (21%)
Title                                    : Surround
Language                                 : Italian
Default                                  : Yes
Forced                                   : No

Audio #2
ID                                       : 3
Format                                   : AC-3
Format/Info                              : Audio Coding 3
Mode extension                           : CM (complete main)
Codec ID                                 : A_AC3
Duration                                 : 1h 43mn
Bit rate mode                            : Constant
Bit rate                                 : 448 Kbps
Channel(s)                               : 6 channels
Channel positions                        : Front: L C R, Side: L R, LFE
Sampling rate                            : 48.0 KHz
Bit depth                                : 16 bits
Compression mode                         : Lossy
Delay relative to video                  : 1mn 5s
Stream size                              : 333 MiB (21%)
Title                                    : Surround
Language                                 : English
Default                                  : No
Forced                                   : No

Text
ID                                       : 4
Format                                   : VobSub
Codec ID                                 : S_VOBSUB
Codec ID/Info                            : The same subtitle format used on DVDs
Language                                 : Italian
Default                                  : No
Forced                                   : No

Menu
00:00:00.000                             : :Chapter 1
00:02:56.440                             : :Chapter 2
00:07:37.920                             : :Chapter 3
00:11:29.360                             : :Chapter 4
00:15:31.480                             : :Chapter 5
00:21:52.880                             : :Chapter 6
00:25:16.920                             : :Chapter 7
00:30:00.320                             : :Chapter 8
00:34:12.080                             : :Chapter 9
00:40:39.920                             : :Chapter 10
00:46:56.800                             : :Chapter 11
00:52:44.040                             : :Chapter 12
00:57:20.600                             : :Chapter 13
01:01:28.480                             : :Chapter 14
01:07:40.480                             : :Chapter 15
01:13:39.120                             : :Chapter 16
01:16:23.320                             : :Chapter 17
01:23:40.480                             : :Chapter 18
01:29:23.680                             : :Chapter 19
01:34:54.200                             : :Chapter 20



[/spoiler]

[/center]

Info: Per scaricare devi usare un client come uTorrent o Transmission
AnnounceURL
udp://tracker.coppersurfer.tk:6969/announce
Hash bf59d701c60a6c1aab1ff4ceb30dcfcba89f58fa
Peers seeds: 55 , leech: 11
Size 1.56 GB
Completato 992x
Aggiunto 30.07.17 - 08:07:58
Uploader   robbyrs
Votazione (Voti: 1)


Condividi questo bittorrent:


html/blog:


bbcode/forum:




Aggiungi Commento


counter