* Dettagli Torrent   globale  | Commenti (0) 


- Curioso come George 3 - Ritorno nella giungla (2015).H264.Italian.English.Ac3.5.1.sub.ita.eng.iCV-MI -


Download via torrent:
Categoria bittorrent BDRip
Descrizione
Curious George 3: Back to the Jungle - Curioso come George 3 - Ritorno nella giungla (2015).H264.Italian.English.Ac3.5.1.sub.ita.eng.iCV-MIRCrew

[center]by www.icv-crew.org


NO FOUND ONLY ORIGINAL RELEASE



My release is always in double track audio italian and Original audio
for select it use VLC or dvd player home
not use wmp

Curioso come George 3 - Ritorno nella giungla - Curious George 3: Back to the Jungle (2015)


PRESENTI ANCHE i SOTTOTITOLI

ESTERNI IN SRT (ita/eng)







Produzione: Universal Pictures, 2015
Distribuzione: Universal Pictures
Durata: 81 min



**************************************



Curious George prende parte ad un'importante missione spaziale ma la sua navicella ha un guasto e precipita della giungla africana. Mentre l'uomo con il cappello giallo inizia le sue ricerche, Curious George fa la conoscenza di nuovi amici e nuovi incredibili posti nascosti tra la natura. ............



Launch into the adventure of a lifetime with everyone's favorite monkey in this all-new movie, Curious George 3: Back to the Jungle! When Curious George is asked to take part in a very ...











[spoiler]
General
Unique ID                                : 28701301027845077609279805476590729292 (0x1597AB64F521BBEEB6ED56D6866A384C)
Complete name                            : Curioso come George 3 - Ritorno nella giungla (2015).ita.eng.sub.ita.eng.iCV-MIRCrew.mkv
Format                                   : Matroska
Format version                           : Version 2
File size                                : 1.25 GiB
Duration                                 : 1h 20mn
Overall bit rate                         : 2 217 Kbps
Movie name                               : www.icv-crew.org
Encoded date                             : UTC 2017-05-30 12:57:25
Writing application                      : Lavf54.63.100
Writing library                          : Lavf54.63.100
COPYRIGHT                                : robbyrs

Video
ID                                       : 1
Format                                   : AVC
Format/Info                              : Advanced Video Codec
Format profile                           : [email protected]
Format settings, CABAC                   : Yes
Format settings, ReFrames                : 2 frames
Codec ID                                 : V_MPEG4/ISO/AVC
Duration                                 : 1h 20mn
Bit rate                                 : 1 290 Kbps
Width                                    : 720 pixels
Height                                   : 404 pixels
Display aspect ratio                     : 16:9
Frame rate mode                          : Variable
Frame rate                               : 23.976 fps
Color space                              : YUV
Chroma subsampling                       : 4:2:0
Bit depth                                : 8 bits
Scan type                                : Progressive
Bits/(Pixel*Frame)                       : 0.185
Stream size                              : 735 MiB (58%)
Writing library                          : x264 core 130 r2273
Encoding settings                        : cabac=1 / ref=2 / deblock=1:0:0 / analyse=0x1:0x131 / me=hex / subme=7 / psy=1 / psy_rd=1.00:0.00 / mixed_ref=0 / me_range=16 / chroma_me=1 / trellis=1 / 8x8dct=0 / cqm=0 / deadzone=21,11 / fast_pskip=1 / chroma_qp_offset=-2 / threads=12 / lookahead_threads=2 / sliced_threads=0 / nr=0 / decimate=1 / interlaced=0 / bluray_compat=0 / constrained_intra=0 / bframes=3 / b_pyramid=0 / b_adapt=1 / b_bias=0 / direct=3 / weightb=1 / open_gop=0 / weightp=2 / keyint=230 / keyint_min=23 / scenecut=40 / intra_refresh=0 / rc_lookahead=40 / rc=abr / mbtree=1 / bitrate=1290 / ratetol=1.0 / qcomp=0.60 / qpmin=10 / qpmax=69 / qpstep=4 / vbv_maxrate=24000 / vbv_bufsize=24000 / nal_hrd=none / ip_ratio=1.40 / aq=1:1.00
Language                                 : Italian
Default                                  : Yes
Forced                                   : No
DURATION                                 : 01:20:30.242000000
NUMBER_OF_FRAMES                         : 115810
NUMBER_OF_BYTES                          : 4949893609
_STATISTICS_WRITING_APP                  : mkvmerge v8.3.0 ('Over the Horizon') 32bit
_STATISTICS_WRITING_DATE_UTC             : 2015-08-24 08:00:34
_STATISTICS_TAGS                         : BPS DURATION NUMBER_OF_FRAMES NUMBER_OF_BYTES

Audio #1
ID                                       : 2
Format                                   : AC-3
Format/Info                              : Audio Coding 3
Mode extension                           : CM (complete main)
Codec ID                                 : A_AC3
Duration                                 : 1h 20mn
Bit rate mode                            : Constant
Bit rate                                 : 448 Kbps
Channel(s)                               : 6 channels
Channel positions                        : Front: L C R, Side: L R, LFE
Sampling rate                            : 48.0 KHz
Bit depth                                : 16 bits
Compression mode                         : Lossy
Delay relative to video                  : 1mn 5s
Stream size                              : 258 MiB (20%)
Language                                 : Italian
Default                                  : No
Forced                                   : No
DURATION                                 : 01:20:30.272000000
NUMBER_OF_FRAMES                         : 150946
NUMBER_OF_BYTES                          : 386421760
_STATISTICS_WRITING_APP                  : mkvmerge v8.3.0 ('Over the Horizon') 32bit
_STATISTICS_WRITING_DATE_UTC             : 2015-08-24 08:00:34
_STATISTICS_TAGS                         : BPS DURATION NUMBER_OF_FRAMES NUMBER_OF_BYTES

Audio #2
ID                                       : 3
Format                                   : AC-3
Format/Info                              : Audio Coding 3
Mode extension                           : CM (complete main)
Codec ID                                 : A_AC3
Duration                                 : 1h 20mn
Bit rate mode                            : Constant
Bit rate                                 : 448 Kbps
Channel(s)                               : 6 channels
Channel positions                        : Front: L C R, Side: L R, LFE
Sampling rate                            : 48.0 KHz
Bit depth                                : 16 bits
Compression mode                         : Lossy
Delay relative to video                  : 1mn 5s
Stream size                              : 258 MiB (20%)
Language                                 : English
Default                                  : No
Forced                                   : No
DURATION                                 : 01:20:30.251000000
NUMBER_OF_FRAMES                         : 452836
NUMBER_OF_BYTES                          : 911107676
_STATISTICS_WRITING_APP                  : mkvmerge v8.3.0 ('Over the Horizon') 32bit
_STATISTICS_WRITING_DATE_UTC             : 2015-08-24 08:00:34
_STATISTICS_TAGS                         : BPS DURATION NUMBER_OF_FRAMES NUMBER_OF_BYTES

Text #1
ID                                       : 4
Format                                   : ASS
Codec ID                                 : S_TEXT/ASS
Codec ID/Info                            : Advanced Sub Station Alpha
Compression mode                         : Lossless
Title                                    : Sub. Ita.
Language                                 : Italian
Default                                  : No
Forced                                   : No
DURATION                                 : 01:15:03.206000000
NUMBER_OF_FRAMES                         : 819
NUMBER_OF_BYTES                          : 23888
_STATISTICS_WRITING_APP                  : mkvmerge v8.3.0 ('Over the Horizon') 32bit
_STATISTICS_WRITING_DATE_UTC             : 2015-08-24 08:00:34
_STATISTICS_TAGS                         : BPS DURATION NUMBER_OF_FRAMES NUMBER_OF_BYTES

Text #2
ID                                       : 5
Format                                   : ASS
Codec ID                                 : S_TEXT/ASS
Codec ID/Info                            : Advanced Sub Station Alpha
Compression mode                         : Lossless
Title                                    : Sub. Eng. Not Hearing
Language                                 : English
Default                                  : No
Forced                                   : No
DURATION                                 : 01:15:39.451000000
NUMBER_OF_FRAMES                         : 1461
NUMBER_OF_BYTES                          : 32186
_STATISTICS_WRITING_APP                  : mkvmerge v8.3.0 ('Over the Horizon') 32bit
_STATISTICS_WRITING_DATE_UTC             : 2015-08-24 08:00:34
_STATISTICS_TAGS                         : BPS DURATION NUMBER_OF_FRAMES NUMBER_OF_BYTES

Menu
00:00:00.000                             : :00:00:00.000
00:05:28.954                             : :00:05:28.954
00:08:19.457                             : :00:08:19.457
00:12:02.180                             : :00:12:02.180
00:15:52.034                             : :00:15:52.034
00:20:13.838                             : :00:20:13.838
00:24:32.930                             : :00:24:32.930
00:28:17.487                             : :00:28:17.487
00:31:42.317                             : :00:31:42.317
00:35:16.906                             : :00:35:16.906
00:40:31.012                             : :00:40:31.012
00:44:17.613                             : :00:44:17.613
00:47:12.955                             : :00:47:12.955
00:51:52.735                             : :00:51:52.735
00:56:01.775                             : :00:56:01.775
01:01:33.565                             : :01:01:33.565
01:05:30.051                             : :01:05:30.051
01:11:35.958                             : :01:11:35.958
01:14:44.188                             : :01:14:44.188
01:16:13.319                             : :01:16:13.319


[/spoiler]

[/center]

Info: Per scaricare devi usare un client come uTorrent o Transmission
AnnounceURL
udp://tracker.coppersurfer.tk:6969/announce
Hash b82b6c4eba982360a85e9f0d8a52e0179fa00100
Peers seeds: 34 , leech: 9
Size 1.25 GB
Completato 822x
Aggiunto 30.07.17 - 07:07:26
Uploader   robbyrs
Votazione (Voti: 0)


Condividi questo bittorrent:


html/blog:


bbcode/forum:




Aggiungi Commento


counter