* Dettagli Torrent   globale  | Commenti (0) 


- Raw (2016).H264.Italian.French.Ac3.5.1.sub.ita.eng.iCV-MIRCrew -


Download via torrent:
Categoria bittorrent BDRip
Descrizione
Grave - Raw (2016).H264.Italian.French.Ac3.5.1.sub.ita.eng.iCV-MIRCrew


[center]by www.icv-crew.org


NO FOUND ONLY ORIGINAL RELEASE



My release is always in double track audio italian and Original audio
for select it use VLC or dvd player home
not use wmp

Raw - Grave (2016)







Riconoscimenti

   2016 - Festival di Cannes
       Premio FIPRESCI - Settimana Internazionale della Critica
   2016 - Festival internazionale del cinema fantastico della Catalogna
       Citizen Kane Award per la miglior opera prima
       Carnet Jove Jury Award
       Méliès d'Argento per il miglior lungometraggio
   2016 - BFI London Film Festival

Titolo originale Grave
Lingua originale francese
Paese di produzione Francia, Belgio
Anno 2016
Durata 95 min
Genere Horror
Regia Julia Ducournau
Sceneggiatura Julia Ducournau
Produttore Jean des Forêts, Julie Gayet, Nadia Turincev, Jean-Yves Roubin, Cassandre Warnauts
Casa di produzione Petit Film, Rouge International, Frakas Productions
Fotografia Ruben Impens
Montaggio Jean-Christophe Bouzy
Musiche Jim Williams




   Garance Marillier: Justine
   Ella Rumpf: Alexia
   Rabah Naït Oufella: Adrien
   Laurent Lucas: padre
   Joana Preiss: madre
   Bouli Lanners: autista
   Marion Vernoux: infermiera
   Jean-Louis Sbille: professore




Justine è una timida sedicenne che si è appena iscritta al college per diventare veterinaria. Da sempre vegetariana, a scuola fatica a farsi accettare e spesso è vittima di atti di bullismo, in cui viene costretta a mangiare per la prima volta la carne, come rito di iniziazione. Dopo aver assaggiato la carne la sua vita cambia inesorabilmente, viene afflitta da voglie incontrollabili e attacchi di rabbia, che la condurranno al cannibalismo.



When a young vegetarian undergoes a carnivorous hazing ritual at vet school, an unbidden taste for meat begins to grow in her.












[spoiler]
General
Complete name                            : Raw (2016).Ita.Fre.Sub.Ita.eng.iCV-MIRCrew.avi
Format                                   : AVI
Format/Info                              : Audio Video Interleave
File size                                : 1.33 GiB
Duration                                 : 1h 38mn
Overall bit rate                         : 1 929 Kbps
Writing application                      : VirtualDubMod 1.5.10.2 (build 2540/release)
Writing library                          : VirtualDubMod build 2540/release
Copyright                                : robbyrs

Video
ID                                       : 0
Format                                   : MPEG-4 Visual
Format profile                           : [email protected]
Format settings, BVOP                    : No
Format settings, QPel                    : No
Format settings, GMC                     : No warppoints
Format settings, Matrix                  : Default (H.263)
Codec ID                                 : XVID
Codec ID/Hint                            : XviD
Duration                                 : 1h 38mn
Bit rate                                 : 1 338 Kbps
Width                                    : 688 pixels
Height                                   : 288 pixels
Display aspect ratio                     : 2.40:1
Frame rate                               : 23.976 fps
Color space                              : YUV
Chroma subsampling                       : 4:2:0
Bit depth                                : 8 bits
Scan type                                : Progressive
Compression mode                         : Lossy
Bits/(Pixel*Frame)                       : 0.282
Stream size                              : 942 MiB (69%)
Writing library                          : XviD 64

Audio #1
ID                                       : 1
Format                                   : AC-3
Format/Info                              : Audio Coding 3
Mode extension                           : CM (complete main)
Codec ID                                 : 2000
Duration                                 : 1h 38mn
Bit rate mode                            : Constant
Bit rate                                 : 384 Kbps
Channel(s)                               : 6 channels
Channel positions                        : Front: L C R, Side: L R, LFE
Sampling rate                            : 48.0 KHz
Bit depth                                : 16 bits
Compression mode                         : Lossy
Stream size                              : 270 MiB (20%)
Alignment                                : Split accross interleaves
Interleave, duration                     : 42 ms (1.00 video frame)
Interleave, preload duration             : 500 ms

Audio #2
ID                                       : 2
Format                                   : AC-3
Format/Info                              : Audio Coding 3
Mode extension                           : CM (complete main)
Codec ID                                 : 2000
Duration                                 : 1h 38mn
Bit rate mode                            : Constant
Bit rate                                 : 192 Kbps
Channel(s)                               : 2 channels
Channel positions                        : Front: L R
Sampling rate                            : 48.0 KHz
Bit depth                                : 16 bits
Compression mode                         : Lossy
Stream size                              : 135 MiB (10%)
Alignment                                : Split accross interleaves
Interleave, duration                     : 42 ms (1.00 video frame)
Interleave, preload duration             : 500 ms


[/spoiler]

[/center]

Info: Per scaricare devi usare un client come uTorrent o Transmission
AnnounceURL
udp://tracker.coppersurfer.tk:6969/announce
Hash 2895a903cfb9b6585a15ec71a68c012118791545
Peers seeds: 67 , leech: 8
Size 1.33 GB
Completato 1708x
Aggiunto 30.07.17 - 04:07:54
Uploader   robbyrs
Votazione (Voti: 1)


Condividi questo bittorrent:


html/blog:


bbcode/forum:




Aggiungi Commento


counter