* Dettagli Torrent   globale  | Commenti (0) 


- Milano calibro 9 (1972).H264.Italian.English.Ac3.sub.eng.iCV-MIRCrew -


Download via torrent:
Categoria bittorrent BDRip
Descrizione
Caliber 9 - Milano calibro 9 (1972).H264.Italian.English.Ac3.sub.eng.iCV-MIRCrew


[center]by www.icv-crew.org


NO FOUND ONLY ORIGINAL RELEASE



My release is always in double track audio italian and Original audio
for select it use VLC or dvd player home
not use wmp

Milano calibro 9 - Caliber 9 (1972)







Lingua originale italiano
Paese di produzione Italia
Anno 1972
Durata 88 min
Rapporto 1,85 : 1
Genere noir, poliziesco
Regia Fernando Di Leo
Soggetto Fernando Di Leo, Giorgio Scerbanenco
Sceneggiatura Fernando Di Leo
Produttore Armando Novelli
Casa di produzione Cineproduzione Daunia 70
Distribuzione (Italia) Alpherat S.p.A.
Fotografia Franco Villa
Montaggio Amedeo Giomini
Musiche Luis Enríquez Bacalov, Osanna
Scenografia Francesco Cuppini
Costumi Francesco Cuppini, Marcella Moretti
Trucco Antonio Mura




   Gastone Moschin: Ugo Piazza
   Barbara Bouchet: Nelly Bordon
   Mario Adorf: Rocco Musco
   Frank Wolff: commissario di polizia
   Luigi Pistilli: vicecommissario Mercuri
   Ivo Garrani: Don Vincenzo
   Philippe Leroy: Chino
   Lionel Stander: l'Americano
   Salvatore Aricò: Luca
   Mario Novelli: Pasquale Tallarico
   Giuseppe Castellano: Nicola
   Ernesto Colli: Alfredo Bertolon
   Giorgio Trestini: Franceschino
   Alessandro Tedeschi: corriere
   Fernando Cerulli: portiere d'albergo
   Ettore Geri: barman del night-club
   Gastone Pescucci: funzionario di polizia




Il malavitoso Rocco Musco e un compare sorvegliano una spedizione di valuta clandestina in dollari, trasferita a Milano ad opera di alcuni corrieri; il plico, nel percorso che parte da piazza del Duomo e prosegue in metropolitana, durante gli scambi tra i vari corrieri viene misteriosamente sostituito e i soldi spariscono..............



Just out of prison, ex-con Ugo Piazza meets his former employer, a psychopathic gangster Rocco who enjoys sick violence and torture. Both the gangsters and the police believe Ugo has hidden...












[spoiler]
General
Unique ID                                : 142537014707091484711438858494120870414 (0x6B3BA167307BD950DDC350DEE8F8C20E)
Complete name                            : Milano calibro 9 (1972).H264.ita.eng.sub.eng.iCV-MIRCrew.mkv
Format                                   : Matroska
Format version                           : Version 2
File size                                : 1.20 GiB
Duration                                 : 1h 42mn
Overall bit rate                         : 1 676 Kbps
Encoded date                             : UTC 2017-06-09T19:15:12Z
Writing application                      : HandBrake 0.10.5 2016021100
Writing library                          : Lavf55.12.0

Video
ID                                       : 1
Format                                   : AVC
Format/Info                              : Advanced Video Codec
Format profile                           : [email protected]
Format settings, CABAC                   : Yes
Format settings, ReFrames                : 4 frames
Codec ID                                 : V_MPEG4/ISO/AVC
Duration                                 : 1h 42mn
Bit rate                                 : 1 290 Kbps
Width                                    : 688 pixels
Height                                   : 368 pixels
Display aspect ratio                     : 1.870
Frame rate mode                          : Variable
Frame rate                               : 23.976 fps
Color space                              : YUV
Chroma subsampling                       : 4:2:0
Bit depth                                : 8 bits
Scan type                                : Progressive
Bits/(Pixel*Frame)                       : 0.213
Stream size                              : 919 MiB (75%)
Writing library                          : x264 core 142 r2479 dd79a61
Encoding settings                        : cabac=1 / ref=1 / deblock=1:0:0 / analyse=0x1:0x111 / me=hex / subme=2 / psy=1 / psy_rd=1.00:0.00 / mixed_ref=0 / me_range=16 / chroma_me=1 / trellis=0 / 8x8dct=0 / cqm=0 / deadzone=21,11 / fast_pskip=1 / chroma_qp_offset=0 / threads=12 / lookahead_threads=2 / sliced_threads=0 / nr=0 / decimate=1 / interlaced=0 / bluray_compat=0 / constrained_intra=0 / bframes=3 / b_pyramid=2 / b_adapt=1 / b_bias=0 / direct=1 / weightb=1 / open_gop=0 / weightp=1 / keyint=240 / keyint_min=24 / scenecut=40 / intra_refresh=0 / rc_lookahead=10 / rc=abr / mbtree=1 / bitrate=1290 / ratetol=1.0 / qcomp=0.60 / qpmin=0 / qpmax=69 / qpstep=4 / vbv_maxrate=20000 / vbv_bufsize=25000 / nal_hrd=none / filler=0 / ip_ratio=1.40 / aq=1:1.00
Default                                  : Yes
Forced                                   : No
Color primaries                          : BT.709-5, BT.1361, IEC 61966-2-4, SMPTE RP177
Transfer characteristics                 : BT.709-5, BT.1361
Matrix coefficients                      : BT.709-5, BT.1361, IEC 61966-2-4 709, SMPTE RP177

Audio #1
ID                                       : 2
Format                                   : AC-3
Format/Info                              : Audio Coding 3
Mode extension                           : CM (complete main)
Codec ID                                 : A_AC3
Duration                                 : 1h 42mn
Bit rate mode                            : Constant
Bit rate                                 : 192 Kbps
Channel(s)                               : 2 channels
Channel positions                        : Front: L R
Sampling rate                            : 48.0 KHz
Bit depth                                : 16 bits
Compression mode                         : Lossy
Delay relative to video                  : 1mn 5s
Stream size                              : 140 MiB (11%)
Title                                    : Stereo
Language                                 : Italian
Default                                  : Yes
Forced                                   : No

Audio #2
ID                                       : 3
Format                                   : AC-3
Format/Info                              : Audio Coding 3
Mode extension                           : CM (complete main)
Codec ID                                 : A_AC3
Duration                                 : 1h 42mn
Bit rate mode                            : Constant
Bit rate                                 : 192 Kbps
Channel(s)                               : 2 channels
Channel positions                        : Front: L R
Sampling rate                            : 48.0 KHz
Bit depth                                : 16 bits
Compression mode                         : Lossy
Delay relative to video                  : 1mn 5s
Stream size                              : 140 MiB (11%)
Title                                    : Stereo
Language                                 : English
Default                                  : No
Forced                                   : No

Text
ID                                       : 4
Format                                   : ASS
Codec ID                                 : S_TEXT/ASS
Codec ID/Info                            : Advanced Sub Station Alpha
Compression mode                         : Lossless
Language                                 : English
Default                                  : No
Forced                                   : No


[/spoiler]

[/center]

Info: Per scaricare devi usare un client come uTorrent o Transmission
AnnounceURL
udp://tracker.coppersurfer.tk:6969/announce
Hash ae5a94d3ad815f98e4f6d003c5ad9d268e24359b
Peers seeds: 19 , leech: 6
Size 1.20 GB
Completato 475x
Aggiunto 29.07.17 - 15:07:02
Uploader   robbyrs
Votazione (Voti: 2)


Condividi questo bittorrent:


html/blog:


bbcode/forum:




Aggiungi Commento


counter