* Dettagli Torrent   globale  | Commenti (0) 


- Conan il barbaro - Conan the Barbarian (1982).H264.Italian.English.Ac3.sub.ita.eng.iCV-MIRCrew -


Download via torrent:
Categoria bittorrent BDRip
Descrizione
Conan il barbaro - Conan the Barbarian (1982).H264.Italian.English.Ac3.5.1.sub.ita.eng.iCV-MIRCrew

[center]by www.icv-crew.org


NO FOUND ONLY ORIGINAL RELEASE



My release is always in double track audio italian and Original audio
for select it use VLC or dvd player home
not use wmp

Conan il barbaro - Conan the Barbarian (1982)







Titolo originale Conan the Barbarian
Paese di produzione USA
Anno 1982
Durata 128 min
Rapporto 2.35 : 1
Genere epico, fantastico, avventura, azione
Regia John Milius
Soggetto Robert E. Howard
Sceneggiatura Oliver Stone, John Milius
Produttore Dino De Laurentiis
Produttore esecutivo D. Constantine Conte
Casa di produzione 20th Century Fox
Distribuzione (Italia) 20th Century Fox, Ricci e Marinelli
Fotografia Duke Callaghan
Montaggio Carroll Timothy O'Meara
Effetti speciali Nick Allder
Musiche Basil Poledouris
Scenografia Ron Cobb
Costumi John Bloomfield
Trucco José Antonio Sánchez




   Arnold Schwarzenegger: Conan
   James Earl Jones: Thulsa Doom
   Max von Sydow: Re Osric
   Sandahl Bergman: Valeria
   Ben Davidson: Rexor
   Cassandra Gaviola: La strega
   Gerry Lopez: Subotai
   Mako: Akiro "Il Mago"
   Valérie Quennessen: la principessa
   William Smith: Padre di Conan
   Luis Barboo: Capelli Rossi
   Franco Columbu: esploratore pitto
   Nadiuska : madre di Conan
   Jorge Sanz: Conan bambino
   Jack Taylor: Prete
   Sven Ole Thorsen: Thorgrim




La tribù di Conan conosce il segreto dell'acciaio con il quale forgia le spade dei suoi guerrieri. Uomini a cavallo attaccano di sorpresa il villaggio. Nessuno si salva ad eccezione di pochi bambini tra i quali Conan, che vengono portati via come schiavi ed adibiti alla grande macina...........



A barbarian warrior sets off to avenge his parents and his tribe whom were slain by an evil sorcerer and his henchmen when he was a boy.












[spoiler]
General
General
Unique ID                                : 154361743413173007372767385751369724923 (0x7420FD8A3F1DBBAFAD587D3094C6B3FB)
Complete name                            : Conan il barbaro - Conan the Barbarian (1982).H264.ita.eng.sub.ita.eng.iCV-MIRCrew.mkv
Format                                   : Matroska
Format version                           : Version 2
File size                                : 1.53 GiB
Duration                                 : 2h 10mn
Overall bit rate                         : 1 681 Kbps
Encoded date                             : UTC 2017-07-18T21:18:40Z
Writing application                      : HandBrake 0.10.5 2016021100
Writing library                          : Lavf55.12.0

Video
ID                                       : 1
Format                                   : AVC
Format/Info                              : Advanced Video Codec
Format profile                           : [email protected]
Format settings, CABAC                   : Yes
Format settings, ReFrames                : 4 frames
Codec ID                                 : V_MPEG4/ISO/AVC
Duration                                 : 2h 10mn
Bit rate                                 : 1 290 Kbps
Width                                    : 720 pixels
Height                                   : 304 pixels
Display aspect ratio                     : 2.35:1
Frame rate mode                          : Variable
Frame rate                               : 23.976 fps
Color space                              : YUV
Chroma subsampling                       : 4:2:0
Bit depth                                : 8 bits
Scan type                                : Progressive
Bits/(Pixel*Frame)                       : 0.246
Stream size                              : 1.15 GiB (75%)
Writing library                          : x264 core 142 r2479 dd79a61
Encoding settings                        : cabac=1 / ref=1 / deblock=1:-1:-1 / analyse=0x1:0x111 / me=hex / subme=2 / psy=1 / psy_rd=1.00:0.15 / mixed_ref=0 / me_range=16 / chroma_me=1 / trellis=0 / 8x8dct=0 / cqm=0 / deadzone=21,11 / fast_pskip=1 / chroma_qp_offset=0 / threads=12 / lookahead_threads=2 / sliced_threads=0 / nr=0 / decimate=1 / interlaced=0 / bluray_compat=0 / constrained_intra=0 / bframes=3 / b_pyramid=2 / b_adapt=1 / b_bias=0 / direct=1 / weightb=1 / open_gop=0 / weightp=1 / keyint=240 / keyint_min=24 / scenecut=40 / intra_refresh=0 / rc_lookahead=10 / rc=abr / mbtree=1 / bitrate=1290 / ratetol=1.0 / qcomp=0.60 / qpmin=0 / qpmax=69 / qpstep=4 / vbv_maxrate=20000 / vbv_bufsize=25000 / nal_hrd=none / filler=0 / ip_ratio=1.40 / aq=1:1.00
Default                                  : Yes
Forced                                   : No
Color primaries                          : BT.709-5, BT.1361, IEC 61966-2-4, SMPTE RP177
Transfer characteristics                 : BT.709-5, BT.1361
Matrix coefficients                      : BT.709-5, BT.1361, IEC 61966-2-4 709, SMPTE RP177

Audio #1
ID                                       : 2
Format                                   : AC-3
Format/Info                              : Audio Coding 3
Mode extension                           : CM (complete main)
Codec ID                                 : A_AC3
Duration                                 : 2h 10mn
Bit rate mode                            : Constant
Bit rate                                 : 192 Kbps
Channel(s)                               : 2 channels
Channel positions                        : Front: L R
Sampling rate                            : 44.1 KHz
Bit depth                                : 16 bits
Compression mode                         : Lossy
Delay relative to video                  : 1mn 5s
Stream size                              : 179 MiB (11%)
Title                                    : Stereo
Language                                 : Italian
Default                                  : Yes
Forced                                   : No

Audio #2
ID                                       : 3
Format                                   : AC-3
Format/Info                              : Audio Coding 3
Mode extension                           : CM (complete main)
Codec ID                                 : A_AC3
Duration                                 : 2h 10mn
Bit rate mode                            : Constant
Bit rate                                 : 192 Kbps
Channel(s)                               : 2 channels
Channel positions                        : Front: L R
Sampling rate                            : 48.0 KHz
Bit depth                                : 16 bits
Compression mode                         : Lossy
Delay relative to video                  : 1mn 5s
Stream size                              : 179 MiB (11%)
Title                                    : Stereo
Language                                 : English
Default                                  : No
Forced                                   : No

Text #1
ID                                       : 4
Format                                   : VobSub
Codec ID                                 : S_VOBSUB
Codec ID/Info                            : The same subtitle format used on DVDs
Language                                 : English
Default                                  : No
Forced                                   : No

Text #2
ID                                       : 5
Format                                   : VobSub
Codec ID                                 : S_VOBSUB
Codec ID/Info                            : The same subtitle format used on DVDs
Language                                 : Italian
Default                                  : No
Forced                                   : No



[/spoiler]

[/center]

Info: Per scaricare devi usare un client come uTorrent o Transmission
AnnounceURL
udp://tracker.coppersurfer.tk:6969/announce
Hash 2b0ddb99b9f5b752a3702adb5c176d0fecfb3a40
Peers seeds: 17 , leech: 2
Size 1.53 GB
Completato 466x
Aggiunto 29.07.17 - 14:07:13
Uploader   robbyrs
Votazione (Voti: 0)


Condividi questo bittorrent:


html/blog:


bbcode/forum:




Aggiungi Commento


counter