* Dettagli Torrent   globale  | Commenti (0) 


- La Vendetta (2017).H264.Italian.English.Ac3.5.1.sub.ita.eng.iCV-MIRCrew -


Download via torrent:
Categoria bittorrent BDRip
Descrizione
Aftermath - La Vendetta - (2017).H264.Italian.English.Ac3.5.1.sub.ita.eng.iCV-MIRCrew


[center]by www.icv-crew.org


NO FOUND ONLY ORIGINAL RELEASE



My release is always in double track audio italian and Original audio
for select it use VLC or dvd player home
not use wmp

La vendetta - Aftermath (2017)

PRESENTI ANCHE i SOTTOTITOLI

ESTERNI IN SRT (ita/eng)







Titolo originale Aftermath
Lingua originale inglese
Paese di produzione Stati Uniti d'America
Anno 2017
Durata 94 min
Genere thriller, drammatico
Regia Elliott Lester
Sceneggiatura Javier Gullón
Produttore Darren Aronofsky, Peter Dealbert, Randall Emmett, Scott Franklin, George Furla, Eric Watson
Produttore esecutivo Barry Brooker, Ted Fox, Wayne Marc Godfrey, Anthony Jabre, Robert Jones, Corey Large, Vance Owen, Steven Saxton, Josh Stern, Mark Stewart, Stan Wertlieb
Casa di produzione Emmett/Furla/Oasis Films, Pacific View Management, Protozoa Pictures, Union Editorial
Distribuzione (Italia) Eagle Pictures
Fotografia Pieter Vermeer
Montaggio Nicholas Wayman-Harris
Effetti speciali Ken Gorrell
Musiche Mark D. Todd
Scenografia Akin McKenzie
Costumi Bic Owen
Trucco Kelly Lane



   Arnold Schwarzenegger: Viktor Roman
   Scoot McNairy: Paul Bonanos
   Maggie Grace: Christina
   Kevin Zegers: John Gullick
   Hannah Ware: Tessa
   Glenn Morshower: Matt
   Mariana Klaveno: Eve Sanders
   Larry Sullivan: James Gullick




La storia racconta di un capo-cantiere che vede morire in un colpo solo sua moglie e sua figlia incinta, in seguito alla fatale disattenzione di un controllore di volo. Rintracciare il responsabile diventa la sua personale ossessione..................



Two strangers' lives become inextricably bound together after a devastating plane crash. Inspired by actual events, AFTERMATH tells a story of guilt and revenge after an air traffic controller's (Scoot McNairy) error causes the death of a construction foreman's (Arnold Schwarzenegger) wife and daughter.












[spoiler]
General
Unique ID                                : 300993114940832238856709824094447708648 (0xE2712A51E1597A46471FA2B719B1A9E
Complete name                            : La vendetta - Aftermath (2017).H264.ita.eng.sub.itaiCV-MIRCrew.mkv
Format                                   : Matroska
Format version                           : Version 2
File size                                : 1.41 GiB
Duration                                 : 1h 33mn
Overall bit rate                         : 2 155 Kbps
Encoded date                             : UTC 2017-07-22 22:29:32
Writing application                      : Lavf54.63.100
Writing library                          : Lavf54.63.100
COPYRIGHT                                : robbyrs
DATE                                     : 2017

Video
ID                                       : 1
Format                                   : AVC
Format/Info                              : Advanced Video Codec
Format profile                           : [email protected]
Format settings, CABAC                   : Yes
Format settings, ReFrames                : 4 frames
Codec ID                                 : V_MPEG4/ISO/AVC
Duration                                 : 1h 33mn
Bit rate                                 : 1 216 Kbps
Nominal bit rate                         : 1 290 Kbps
Width                                    : 720 pixels
Height                                   : 300 pixels
Display aspect ratio                     : 2.40:1
Frame rate mode                          : Variable
Frame rate                               : 23.976 fps
Color space                              : YUV
Chroma subsampling                       : 4:2:0
Bit depth                                : 8 bits
Scan type                                : Progressive
Bits/(Pixel*Frame)                       : 0.235
Stream size                              : 815 MiB (56%)
Writing library                          : x264 core 130 r2273
Encoding settings                        : cabac=1 / ref=4 / deblock=1:1:1 / analyse=0x1:0x131 / me=hex / subme=7 / psy=1 / psy_rd=0.40:0.00 / mixed_ref=0 / me_range=16 / chroma_me=1 / trellis=1 / 8x8dct=0 / cqm=0 / deadzone=21,11 / fast_pskip=1 / chroma_qp_offset=-2 / threads=12 / lookahead_threads=2 / sliced_threads=0 / nr=0 / decimate=1 / interlaced=0 / bluray_compat=0 / constrained_intra=0 / bframes=5 / b_pyramid=0 / b_adapt=1 / b_bias=0 / direct=3 / weightb=1 / open_gop=0 / weightp=2 / keyint=230 / keyint_min=23 / scenecut=40 / intra_refresh=0 / rc_lookahead=40 / rc=abr / mbtree=1 / bitrate=1290 / ratetol=1.0 / qcomp=0.60 / qpmin=10 / qpmax=69 / qpstep=4 / vbv_maxrate=24000 / vbv_bufsize=24000 / nal_hrd=none / ip_ratio=1.40 / aq=1:0.60
Language                                 : Italian
Default                                  : Yes
Forced                                   : No
DURATION                                 : 01:33:41.449000000
NUMBER_OF_FRAMES                         : 134780
NUMBER_OF_BYTES                          : 5058136219
_STATISTICS_WRITING_APP                  : mkvmerge v9.5.0 ('Quiet Fire') 32bit
_STATISTICS_WRITING_DATE_UTC             : 2017-07-10 21:53:06
_STATISTICS_TAGS                         : BPS DURATION NUMBER_OF_FRAMES NUMBER_OF_BYTES

Audio #1
ID                                       : 2
Format                                   : AC-3
Format/Info                              : Audio Coding 3
Mode extension                           : CM (complete main)
Codec ID                                 : A_AC3
Duration                                 : 1h 33mn
Bit rate mode                            : Constant
Bit rate                                 : 448 Kbps
Channel(s)                               : 6 channels
Channel positions                        : Front: L C R, Side: L R, LFE
Sampling rate                            : 48.0 KHz
Bit depth                                : 16 bits
Compression mode                         : Lossy
Delay relative to video                  : 1mn 5s
Stream size                              : 300 MiB (21%)
Language                                 : Italian
Default                                  : No
Forced                                   : No
DURATION                                 : 01:33:41.472000000
NUMBER_OF_FRAMES                         : 175671
NUMBER_OF_BYTES                          : 449717760
_STATISTICS_WRITING_APP                  : mkvmerge v9.5.0 ('Quiet Fire') 32bit
_STATISTICS_WRITING_DATE_UTC             : 2017-07-10 21:53:06
_STATISTICS_TAGS                         : BPS DURATION NUMBER_OF_FRAMES NUMBER_OF_BYTES

Audio #2
ID                                       : 3
Format                                   : AC-3
Format/Info                              : Audio Coding 3
Mode extension                           : CM (complete main)
Codec ID                                 : A_AC3
Duration                                 : 1h 33mn
Bit rate mode                            : Constant
Bit rate                                 : 448 Kbps
Channel(s)                               : 6 channels
Channel positions                        : Front: L C R, Side: L R, LFE
Sampling rate                            : 48.0 KHz
Bit depth                                : 16 bits
Compression mode                         : Lossy
Delay relative to video                  : 1mn 5s
Stream size                              : 300 MiB (21%)
Language                                 : English
Default                                  : No
Forced                                   : No
DURATION                                 : 01:33:41.451000000
NUMBER_OF_FRAMES                         : 527011
NUMBER_OF_BYTES                          : 1060346200
_STATISTICS_WRITING_APP                  : mkvmerge v9.5.0 ('Quiet Fire') 32bit
_STATISTICS_WRITING_DATE_UTC             : 2017-07-10 21:53:06
_STATISTICS_TAGS                         : BPS DURATION NUMBER_OF_FRAMES NUMBER_OF_BYTES

Text #1
ID                                       : 4
Format                                   : ASS
Codec ID                                 : S_TEXT/ASS
Codec ID/Info                            : Advanced Sub Station Alpha
Compression mode                         : Lossless
Title                                    : Sub. Ita. Forced
Language                                 : Italian
Default                                  : Yes
Forced                                   : Yes
DURATION                                 : 00:53:27.453000000
NUMBER_OF_FRAMES                         : 4
NUMBER_OF_BYTES                          : 57
_STATISTICS_WRITING_APP                  : mkvmerge v9.5.0 ('Quiet Fire') 32bit
_STATISTICS_WRITING_DATE_UTC             : 2017-07-10 21:53:06
_STATISTICS_TAGS                         : BPS DURATION NUMBER_OF_FRAMES NUMBER_OF_BYTES

Text #2
ID                                       : 5
Format                                   : ASS
Codec ID                                 : S_TEXT/ASS
Codec ID/Info                            : Advanced Sub Station Alpha
Compression mode                         : Lossless
Title                                    : Sub. Ita.
Language                                 : Italian
Default                                  : No
Forced                                   : No
DURATION                                 : 01:26:22.551000000
NUMBER_OF_FRAMES                         : 728
NUMBER_OF_BYTES                          : 28015
_STATISTICS_WRITING_APP                  : mkvmerge v9.5.0 ('Quiet Fire') 32bit
_STATISTICS_WRITING_DATE_UTC             : 2017-07-10 21:53:06
_STATISTICS_TAGS                         : BPS DURATION NUMBER_OF_FRAMES NUMBER_OF_BYTES

Menu
00:00:00.000                             : :00:00:00.000
00:00:46.797                             : :00:00:46.797
00:10:37.011                             : :00:10:37.011
00:17:21.707                             : :00:17:21.707
00:25:13.429                             : :00:25:13.429
00:33:27.255                             : :00:33:27.255
00:40:19.334                             : :00:40:19.334
00:45:32.772                             : :00:45:32.772
00:54:00.320                             : :00:54:00.320
00:59:38.992                             : :00:59:38.992
01:10:06.202                             : :01:10:06.202
01:18:06.181                             : :01:18:06.181
01:27:34.040                             : :01:27:34.040


[/spoiler]

[/center]

Info: Per scaricare devi usare un client come uTorrent o Transmission
AnnounceURL
udp://tracker.coppersurfer.tk:6969/announce
Hash c1756d02bfd27ce7ab626a687e5f35010c3900ad
Peers seeds: 170 , leech: 29
Size 1.41 GB
Completato 3381x
Aggiunto 29.07.17 - 14:07:59
Uploader   robbyrs
Votazione (Voti: 1)


Condividi questo bittorrent:


html/blog:


bbcode/forum:




Aggiungi Commento


counter