* Dettagli Torrent   globale  | Commenti (0) 


- Casinò (1995).H264.Italian.English.Ac3.sub.ita.eng.iCV-MIRCrew -


Download via torrent:
Categoria bittorrent BDRip
Descrizione
Casino - Casinò (1995).H264.Italian.English.Ac3.sub.ita.eng.iCV-MIRCrew

[center]by www.icv-crew.org


NO FOUND ONLY ORIGINAL RELEASE



My release is always in double track audio italian and Original audio
for select it use VLC or dvd player home
not use wmp

Casinò (1995)

PRESENTI ANCHE i SOTTOTITOLI

ESTERNI IN SRT (ita/eng)







Titolo originale Casino
Lingua originale inglese, francese
Paese di produzione Stati Uniti d'America
Anno 1995
Durata 178 min
Rapporto 2.35 : 1
Genere biografico
Regia Martin Scorsese
Soggetto Nicholas Pileggi (romanzo)
Sceneggiatura Martin Scorsese, Nicholas Pileggi
Produttore Barbara De Fina
Casa di produzione Universal Pictures, Syalis DA, Légende Entreprises, De Fina-Cappa
Distribuzione (Italia) Universal Pictures Italia
Fotografia Robert Richardson
Montaggio Thelma Schoonmaker
Effetti speciali Terry Erickson
Scenografia Dante Ferretti




   Robert De Niro: Sam "Asso" Rothstein
   Sharon Stone: Ginger McKenna
   Joe Pesci: Nicky Santoro
   James Woods: Lester Diamond
   Don Rickles: Billy Sherbert
   Alan King: Andy Stone
   Kevin Pollak: Phillip Green
   L.Q. Jones: Pat Webb
   Dick Smothers: senatore
   Frank Vincent: Frank Marino
   John Bloom: Don Ward
   Pasquale Cajano: Remo Gaggi
   Melissa Prophet: Jennifer Santoro
   Bill Allison: John Nance
   Vinny Vella: Artie Piscano
   Philip Suriano: Dominick Santoro
   Erika von Tagen: Amy Rothstein
   Joseph Rigano: Vincent Borelli
   Catherine Scorsese: madre di Artie Piscano
   Gene Ruffini: Vinny Forlano
   Nobu Matsuhisa: Ichikawa
   Michael McKensie Pratt: coreografo
   Jack Orend: cuoco
   Ffolliott Le Coque: Anna Scott
   Andy Jarrell: membro della commissione
   Randy Sutton: Randy, poliziotto a casa di Asso
   Jeff Corbin: poliziotto a casa di Asso #2
   Frankie Avalon: sé stesso





   Robert De Niro: Sam "Asso" Rothstein
   Sharon Stone: Ginger McKenna
   Joe Pesci: Nicky Santoro
   James Woods: Lester Diamond
   Don Rickles: Billy Sherbert
   Alan King: Andy Stone
   Kevin Pollak: Phillip Green
   L.Q. Jones: Pat Webb
   Dick Smothers: senatore
   Frank Vincent: Frank Marino
   John Bloom: Don Ward
   Pasquale Cajano: Remo Gaggi
   Melissa Prophet: Jennifer Santoro
   Bill Allison: John Nance
   Vinny Vella: Artie Piscano
   Philip Suriano: Dominick Santoro
   Erika von Tagen: Amy Rothstein
   Joseph Rigano: Vincent Borelli
   Catherine Scorsese: madre di Artie Piscano
   Gene Ruffini: Vinny Forlano
   Nobu Matsuhisa: Ichikawa
   Michael McKensie Pratt: coreografo
   Jack Orend: cuoco
   Ffolliott Le Coque: Anna Scott
   Andy Jarrell: membro della commissione
   Randy Sutton: Randy, poliziotto a casa di Asso
   Jeff Corbin: poliziotto a casa di Asso #2
   Frankie Avalon: sé stesso



Sam Rothstein è soprannominato Asso, perché molto bravo con le scommesse, e lavora alle direttive della Chicago Outfit, capeggiata dal boss Remo Gaggi. Grazie alle sue scommesse fortunate, Asso rende ricca la famiglia di Remo, che per premiarlo gli affida la gestione di un casinò appena aperto a Las Vegas, il Tangiers. A controllare Rothstein viene mandato un suo amico d'infanzia, Nicky Santoro, per assicurarsi che nessuno manchi di rispetto ad Asso e, di conseguenza, alla famiglia...................



A tale of greed, deception, money, power, and murder occur between two best friends: a mafia enforcer and a casino executive, compete against each other over a gambling empire and over a fast living and fast loving woman.












[spoiler]
General
Unique ID                                : 289713275956994629345034084293238879314 (0xD9F4BF520403299DCEEE8F6EC5D07452)
Complete name                            : Casinò (1995).H264.ita.eng.sub.ita.eng.iCV-MIRCrew.mkv
Format                                   : Matroska
Format version                           : Version 2
File size                                : 2.40 GiB
Duration                                 : 2h 58mn
Overall bit rate                         : 1 924 Kbps
Encoded date                             : UTC 2017-07-09 13:54:13
Writing application                      : Lavf54.63.100
Writing library                          : Lavf54.63.100
COPYRIGHT                                : robbyrs

Video
ID                                       : 1
Format                                   : AVC
Format/Info                              : Advanced Video Codec
Format profile                           : [email protected]
Format settings, CABAC                   : Yes
Format settings, ReFrames                : 2 frames
Codec ID                                 : V_MPEG4/ISO/AVC
Duration                                 : 2h 58mn
Bit rate                                 : 1 290 Kbps
Width                                    : 686 pixels
Height                                   : 288 pixels
Display aspect ratio                     : 2.35:1
Original display aspect ratio            : 2.35:1
Frame rate mode                          : Variable
Frame rate                               : 23.976 fps
Color space                              : YUV
Chroma subsampling                       : 4:2:0
Bit depth                                : 8 bits
Scan type                                : Progressive
Bits/(Pixel*Frame)                       : 0.272
Stream size                              : 1.55 GiB (65%)
Writing library                          : x264 core 130 r2273
Encoding settings                        : cabac=1 / ref=2 / deblock=1:0:0 / analyse=0x1:0x131 / me=hex / subme=7 / psy=1 / psy_rd=1.00:0.00 / mixed_ref=0 / me_range=16 / chroma_me=1 / trellis=1 / 8x8dct=0 / cqm=0 / deadzone=21,11 / fast_pskip=1 / chroma_qp_offset=-2 / threads=12 / lookahead_threads=2 / sliced_threads=0 / nr=0 / decimate=1 / interlaced=0 / bluray_compat=0 / constrained_intra=0 / bframes=3 / b_pyramid=0 / b_adapt=1 / b_bias=0 / direct=3 / weightb=1 / open_gop=0 / weightp=2 / keyint=230 / keyint_min=23 / scenecut=40 / intra_refresh=0 / rc_lookahead=40 / rc=abr / mbtree=1 / bitrate=1290 / ratetol=1.0 / qcomp=0.60 / qpmin=10 / qpmax=69 / qpstep=4 / vbv_maxrate=24000 / vbv_bufsize=24000 / nal_hrd=none / ip_ratio=1.40 / aq=1:1.00
Language                                 : Italian
Default                                  : Yes
Forced                                   : No

Audio #1
ID                                       : 2
Format                                   : AC-3
Format/Info                              : Audio Coding 3
Mode extension                           : CM (complete main)
Codec ID                                 : A_AC3
Duration                                 : 2h 58mn
Bit rate mode                            : Constant
Bit rate                                 : 192 Kbps
Channel(s)                               : 2 channels
Channel positions                        : Front: L R
Sampling rate                            : 48.0 KHz
Bit depth                                : 16 bits
Compression mode                         : Lossy
Delay relative to video                  : 1mn 5s
Stream size                              : 245 MiB (10%)
Language                                 : Italian
Default                                  : Yes
Forced                                   : No

Audio #2
ID                                       : 3
Format                                   : AC-3
Format/Info                              : Audio Coding 3
Mode extension                           : CM (complete main)
Codec ID                                 : A_AC3
Duration                                 : 2h 58mn
Bit rate mode                            : Constant
Bit rate                                 : 448 Kbps
Channel(s)                               : 2 channels
Channel positions                        : Front: L R
Sampling rate                            : 48.0 KHz
Bit depth                                : 16 bits
Compression mode                         : Lossy
Delay relative to video                  : 1mn 5s
Stream size                              : 571 MiB (23%)
Language                                 : English
Default                                  : No
Forced                                   : No

Text #1
ID                                       : 4
Format                                   : ASS
Codec ID                                 : S_TEXT/ASS
Codec ID/Info                            : Advanced Sub Station Alpha
Compression mode                         : Lossless
Language                                 : Italian
Default                                  : No
Forced                                   : No

Text #2
ID                                       : 5
Format                                   : ASS
Codec ID                                 : S_TEXT/ASS
Codec ID/Info                            : Advanced Sub Station Alpha
Compression mode                         : Lossless
Language                                 : English
Default                                  : No
Forced                                   : No

Menu
00:00:00.000                             : :Chapter 01
00:08:00.000                             : :Chapter 02
00:16:00.000                             : :Chapter 03
00:24:00.000                             : :Chapter 04
00:32:00.000                             : :Chapter 05
00:40:00.000                             : :Chapter 06
00:48:00.000                             : :Chapter 07
00:56:00.000                             : :Chapter 08
01:04:00.000                             : :Chapter 09
01:12:00.000                             : :Chapter 10
01:40:00.000                             : :Chapter 14
01:51:00.000                             : :Chapter 15
02:00:00.000                             : :Chapter 16
02:15:00.000                             : :Chapter 17
02:30:00.000                             : :Chapter 18
02:38:00.000                             : :Chapter 19
02:46:00.000                             : :Chapter 20


[/spoiler]

[/center]

Info: Per scaricare devi usare un client come uTorrent o Transmission
AnnounceURL
udp://tracker.coppersurfer.tk:6969/announce
Hash aa68798194d5ea5c6bd56234fc0b0399994987ef
Peers seeds: 16 , leech: 2
Size 2.40 GB
Completato 304x
Aggiunto 29.07.17 - 14:07:20
Uploader   robbyrs
Votazione (Voti: 0)


Condividi questo bittorrent:


html/blog:


bbcode/forum:




Aggiungi Commento


counter