* Dettagli Torrent   globale  | Commenti (0) 


- Il filo del rasoio (1984).H264.Italian.English.Ac3.sub.ita.iCV-MIRCrew -


Download via torrent:
Categoria bittorrent BDRip
Descrizione
The Razor's Edge - Il Filo Del Rasoio (1984).H264.Italian.English.Ac3.sub.ita.iCV-MIRCrew

[center]by www.icv-crew.org


NO FOUND ONLY ORIGINAL RELEASE



My release is always in double track audio italian and Original audio
for select it use VLC or dvd player home
not use wmp

Il Filo Del Rasoio - The Razor's Edge (1984)

PRESENTI ANCHE i SOTTOTITOLI

ESTERNI IN SRT (ita/eng)







Titolo originale The Razor's Edge
Paese di produzione Stati Uniti
Anno 1984
Durata 128 min
Genere drammatico, sentimentale, guerra
Regia John Byrum
Soggetto William Somerset Maugham
Sceneggiatura John Byrum, Bill Murray
Fotografia Peter Hannan
Montaggio Peter Boyle
Musiche Jack Nitzsche




   Bill Murray: Larry Darrell
   Theresa Russell: Sophie Nelson Macdonald
   Catherine Hicks: Isabel Bradley
   Denholm Elliott: Elliott Templeton
   James Keach: Gray Maturin
   Peter Vaughan: MacKenzie
   Brian Doyle-Murray: Piedmont
   Stephen Davies: Malcolm
   Saeed Jaffrey: Raaz
   Faith Brook: Louisa Bradley
   André Maranne: Joseph, il maggiordomo
   Bruce Boa: Henry Maturin
   Serge Feuillard: Coco
   Joris Stuyck: Bob MacDonald
   Helen Horton: Dama della Croce Rossa




Spiritualmente distrutto dall'esperienza di combattente nella prima guerra mondiale, l'americano Larry Darrell, dopo il suo rientro in patria, scioglie il proprio fidanzamento con Isabel Bradley per iniziare una serie di viaggi e trovare risposte ai suoi dubbi esistenziali. Recatosi sui monti dell'India e soggiornatovi per un tempo opportuno, sembra aver trovato l'illuminazione........................



He had everything and wanted nothing. He learned that he had nothing and wanted everything. He saved the world and then it shattered. The path to enlightenment is as sharp and narrow as a razor's edge.












[spoiler]
General
Unique ID                                : 234390268373438041643364378438461005520 (0xB055EC748B89076A087CE096F2139ED0)
Complete name                            : Il Filo Del Rasoio - The Razor's Edge (1984).H264.ita.eng.sub.ita.eng.iCV-MIRCrew.mkv
Format                                   : Matroska
Format version                           : Version 2
File size                                : 1.51 GiB
Duration                                 : 2h 9mn
Overall bit rate                         : 1 670 Kbps
Encoded date                             : UTC 2017-05-03 17:19:58
Writing application                      : Lavf54.63.100
Writing library                          : Lavf54.63.100
COPYRIGHT                                : robbyrs
DATE                                     : 2017

Video
ID                                       : 1
Format                                   : AVC
Format/Info                              : Advanced Video Codec
Format profile                           : [email protected]
Format settings, CABAC                   : Yes
Format settings, ReFrames                : 4 frames
Codec ID                                 : V_MPEG4/ISO/AVC
Duration                                 : 2h 9mn
Bit rate                                 : 1 290 Kbps
Width                                    : 688 pixels
Height                                   : 288 pixels
Display aspect ratio                     : 2.40:1
Frame rate mode                          : Variable
Frame rate                               : 23.976 fps
Color space                              : YUV
Chroma subsampling                       : 4:2:0
Bit depth                                : 8 bits
Scan type                                : Progressive
Bits/(Pixel*Frame)                       : 0.272
Stream size                              : 1.13 GiB (75%)
Writing library                          : x264 core 130 r2273
Encoding settings                        : cabac=1 / ref=4 / deblock=1:1:1 / analyse=0x1:0x131 / me=hex / subme=7 / psy=1 / psy_rd=0.40:0.00 / mixed_ref=0 / me_range=16 / chroma_me=1 / trellis=1 / 8x8dct=0 / cqm=0 / deadzone=21,11 / fast_pskip=1 / chroma_qp_offset=-2 / threads=12 / lookahead_threads=2 / sliced_threads=0 / nr=0 / decimate=1 / interlaced=0 / bluray_compat=0 / constrained_intra=0 / bframes=5 / b_pyramid=0 / b_adapt=1 / b_bias=0 / direct=3 / weightb=1 / open_gop=0 / weightp=2 / keyint=230 / keyint_min=23 / scenecut=40 / intra_refresh=0 / rc_lookahead=40 / rc=abr / mbtree=1 / bitrate=1290 / ratetol=1.0 / qcomp=0.60 / qpmin=10 / qpmax=69 / qpstep=4 / vbv_maxrate=24000 / vbv_bufsize=24000 / nal_hrd=none / ip_ratio=1.40 / aq=1:0.60
Language                                 : Italian
Default                                  : Yes
Forced                                   : No
DURATION                                 : 02:09:05.822000000
NUMBER_OF_FRAMES                         : 185714
NUMBER_OF_BYTES                          : 2011254367
_STATISTICS_WRITING_APP                  : mkvmerge v10.0.0 ('To Drown In You') 64bit
_STATISTICS_WRITING_DATE_UTC             : 2017-05-03 17:19:58
_STATISTICS_TAGS                         : BPS DURATION NUMBER_OF_FRAMES NUMBER_OF_BYTES

Audio #1
ID                                       : 2
Format                                   : AC-3
Format/Info                              : Audio Coding 3
Mode extension                           : CM (complete main)
Codec ID                                 : A_AC3
Duration                                 : 2h 9mn
Bit rate mode                            : Constant
Bit rate                                 : 192 Kbps
Channel(s)                               : 2 channels
Channel positions                        : Front: L R
Sampling rate                            : 48.0 KHz
Bit depth                                : 16 bits
Compression mode                         : Lossy
Delay relative to video                  : 1mn 5s
Stream size                              : 177 MiB (11%)
Title                                    : Italiano AC3 2.0 192kbps
Language                                 : Italian
Default                                  : Yes
Forced                                   : No
DURATION                                 : 02:09:05.792000000
NUMBER_OF_FRAMES                         : 242056
NUMBER_OF_BYTES                          : 185899008
_STATISTICS_WRITING_APP                  : mkvmerge v10.0.0 ('To Drown In You') 64bit
_STATISTICS_WRITING_DATE_UTC             : 2017-05-03 17:19:58
_STATISTICS_TAGS                         : BPS DURATION NUMBER_OF_FRAMES NUMBER_OF_BYTES

Audio #2
ID                                       : 3
Format                                   : AC-3
Format/Info                              : Audio Coding 3
Mode extension                           : CM (complete main)
Codec ID                                 : A_AC3
Duration                                 : 2h 9mn
Bit rate mode                            : Constant
Bit rate                                 : 192 Kbps
Channel(s)                               : 2 channels
Channel positions                        : Front: L R
Sampling rate                            : 48.0 KHz
Bit depth                                : 16 bits
Compression mode                         : Lossy
Delay relative to video                  : 1mn 5s
Stream size                              : 177 MiB (11%)
Title                                    : English AC3 2.0 192kbps
Language                                 : English
Default                                  : No
Forced                                   : No

Text #1
ID                                       : 4
Format                                   : ASS
Codec ID                                 : S_TEXT/ASS
Codec ID/Info                            : Advanced Sub Station Alpha
Compression mode                         : Lossless
Title                                    : Italiano
Language                                 : Italian
Default                                  : No
Forced                                   : No

Text #2
ID                                       : 5
Format                                   : ASS
Codec ID                                 : S_TEXT/ASS
Codec ID/Info                            : Advanced Sub Station Alpha
Compression mode                         : Lossless
Title                                    : English
Language                                 : English
Default                                  : No
Forced                                   : No


[/spoiler]

[/center]

Info: Per scaricare devi usare un client come uTorrent o Transmission
AnnounceURL
udp://tracker.coppersurfer.tk:6969/announce
Hash 0a40ac56a807d9265980da1fe8d2b136cc1343f5
Peers seeds: 17 , leech: 4
Size 1.51 GB
Completato 366x
Aggiunto 26.07.17 - 07:07:46
Uploader   robbyrs
Votazione (Voti: 0)


Condividi questo bittorrent:


html/blog:


bbcode/forum:




Aggiungi Commento


counter