* Dettagli Torrent   globale  | Commenti (0) 


- The Infiltrator (2016).720p.H264.Italian.English.Ac3.5.1.sub.ita.eng.iCV-MIRCrew -


Download via torrent:
Categoria bittorrent BDRip
Descrizione
The Infiltrator (2016).720p.H264.Italian.English.Ac3.5.1.sub.ita.eng.iCV-MIRCrew

[center]by www.icv-crew.org


NO FOUND ONLY ORIGINAL RELEASE



My release is always in double track audio italian and Original audio
for select it use VLC or dvd player home
not use wmp

The Infiltrator (2016)

PRESENTI ANCHE i SOTTOTITOLI

ESTERNI IN SRT (ita/eng)







Titolo originale:   The Infiltrator
Conosciuto anche come:   Conexão Escobar
Nazione:   Gran Bretagna
Anno:   2016
Genere:   Biografico, Drammatico, Crimine
Durata:   127'
Regia:   Brad Furman
Produzione:   Good Films
Distribuzione:  
Data di uscita:   2016 (cinema)




Bryan Cranston, Leanne Best, Daniel Mays, Tom Vaughan-Lawlor, Niall Hayes, Lara Decaro, Juliet Aubrey, Olympia Dukakis, Amy Ryan



Un funzionario americano della dogana scopre un sistema di riciclaggio di denaro che coinvolge il signore colombiano della droga, Pablo Escobar.



A U.S. Customs official uncovers a money laundering scheme involving Colombian drug lord Pablo Escobar.












[spoiler]
General
Unique ID                                : 160820799077666561259049485096943608754 (0x78FCF592386B9D401543BD7A91CBE3B2)
Complete name                            : The Infiltrator (2016).720p.H264.ita.eng.sub.ita.eng.iCV-MIRCrew.mkv
Format                                   : Matroska
Format version                           : Version 2
File size                                : 3.46 GiB
Duration                                 : 2h 7mn
Overall bit rate                         : 3 897 Kbps
Movie name                               : VISIT www.icv-crew.org
Encoded date                             : UTC 2016-12-03 20:12:46
Writing application                      : Lavf54.63.100
Writing library                          : Lavf54.63.100
COPYRIGHT                                : robbyrs

Video
ID                                       : 1
Format                                   : AVC
Format/Info                              : Advanced Video Codec
Format profile                           : [email protected]
Format settings, CABAC                   : Yes
Format settings, ReFrames                : 2 frames
Codec ID                                 : V_MPEG4/ISO/AVC
Duration                                 : 2h 7mn
Bit rate                                 : 3 000 Kbps
Width                                    : 1 722 pixels
Height                                   : 720 pixels
Display aspect ratio                     : 2.40:1
Frame rate mode                          : Variable
Frame rate                               : 23.976 fps
Color space                              : YUV
Chroma subsampling                       : 4:2:0
Bit depth                                : 8 bits
Scan type                                : Progressive
Bits/(Pixel*Frame)                       : 0.101
Stream size                              : 2.60 GiB (75%)
Writing library                          : x264 core 130 r2273
Encoding settings                        : cabac=1 / ref=2 / deblock=1:0:0 / analyse=0x1:0x131 / me=hex / subme=7 / psy=1 / psy_rd=1.00:0.00 / mixed_ref=0 / me_range=16 / chroma_me=1 / trellis=1 / 8x8dct=0 / cqm=0 / deadzone=21,11 / fast_pskip=1 / chroma_qp_offset=-2 / threads=12 / lookahead_threads=2 / sliced_threads=0 / nr=0 / decimate=1 / interlaced=0 / bluray_compat=0 / constrained_intra=0 / bframes=3 / b_pyramid=0 / b_adapt=1 / b_bias=0 / direct=3 / weightb=1 / open_gop=0 / weightp=2 / keyint=230 / keyint_min=23 / scenecut=40 / intra_refresh=0 / rc_lookahead=40 / rc=2pass / mbtree=1 / bitrate=3000 / ratetol=1.0 / qcomp=0.60 / qpmin=10 / qpmax=69 / qpstep=4 / cplxblur=20.0 / qblur=0.5 / vbv_maxrate=24000 / vbv_bufsize=24000 / nal_hrd=none / ip_ratio=1.40 / aq=1:1.00
Language                                 : English
Default                                  : Yes
Forced                                   : No
DURATION                                 : 02:07:08.580000000
NUMBER_OF_FRAMES                         : 182903
NUMBER_OF_BYTES                          : 9876084162
_STATISTICS_WRITING_APP                  : mkvmerge v8.3.0 ('Over the Horizon') 64bit
_STATISTICS_WRITING_DATE_UTC             : 2016-12-02 00:00:04
_STATISTICS_TAGS                         : BPS DURATION NUMBER_OF_FRAMES NUMBER_OF_BYTES

Audio #1
ID                                       : 2
Format                                   : AC-3
Format/Info                              : Audio Coding 3
Mode extension                           : CM (complete main)
Codec ID                                 : A_AC3
Duration                                 : 2h 7mn
Bit rate mode                            : Constant
Bit rate                                 : 448 Kbps
Channel(s)                               : 6 channels
Channel positions                        : Front: L C R, Side: L R, LFE
Sampling rate                            : 48.0 KHz
Bit depth                                : 16 bits
Compression mode                         : Lossy
Delay relative to video                  : 1mn 5s
Stream size                              : 408 MiB (11%)
Language                                 : Italian
Default                                  : Yes
Forced                                   : No
DURATION                                 : 02:07:13.472000000
NUMBER_OF_FRAMES                         : 238546
NUMBER_OF_BYTES                          : 427474432
_STATISTICS_WRITING_APP                  : mkvmerge v8.3.0 ('Over the Horizon') 64bit
_STATISTICS_WRITING_DATE_UTC             : 2016-12-02 00:00:04
_STATISTICS_TAGS                         : BPS DURATION NUMBER_OF_FRAMES NUMBER_OF_BYTES

Audio #2
ID                                       : 3
Format                                   : AC-3
Format/Info                              : Audio Coding 3
Mode extension                           : CM (complete main)
Codec ID                                 : A_AC3
Duration                                 : 2h 7mn
Bit rate mode                            : Constant
Bit rate                                 : 448 Kbps
Channel(s)                               : 6 channels
Channel positions                        : Front: L C R, Side: L R, LFE
Sampling rate                            : 48.0 KHz
Bit depth                                : 16 bits
Compression mode                         : Lossy
Delay relative to video                  : 1mn 5s
Stream size                              : 408 MiB (11%)
Language                                 : English
Default                                  : No
Forced                                   : No
DURATION                                 : 02:07:08.640000000
NUMBER_OF_FRAMES                         : 238395
NUMBER_OF_BYTES                          : 610291200
_STATISTICS_WRITING_APP                  : mkvmerge v8.3.0 ('Over the Horizon') 64bit
_STATISTICS_WRITING_DATE_UTC             : 2016-12-02 00:00:04
_STATISTICS_TAGS                         : BPS DURATION NUMBER_OF_FRAMES NUMBER_OF_BYTES

Text #1
ID                                       : 4
Format                                   : UTF-8
Codec ID                                 : S_TEXT/UTF8
Codec ID/Info                            : UTF-8 Plain Text
Title                                    : FORCED iTA
Language                                 : Italian
Default                                  : Yes
Forced                                   : No
DURATION                                 : 01:58:54.835000000
NUMBER_OF_FRAMES                         : 90
NUMBER_OF_BYTES                          : 4145
_STATISTICS_WRITING_APP                  : mkvmerge v8.3.0 ('Over the Horizon') 64bit
_STATISTICS_WRITING_DATE_UTC             : 2016-12-02 00:00:04
_STATISTICS_TAGS                         : BPS DURATION NUMBER_OF_FRAMES NUMBER_OF_BYTES

Text #2
ID                                       : 5
Format                                   : UTF-8
Codec ID                                 : S_TEXT/UTF8
Codec ID/Info                            : UTF-8 Plain Text
Title                                    : REGULAR iTA
Language                                 : Italian
Default                                  : No
Forced                                   : No
DURATION                                 : 01:58:55.002000000
NUMBER_OF_FRAMES                         : 1721
NUMBER_OF_BYTES                          : 59245
_STATISTICS_WRITING_APP                  : mkvmerge v8.3.0 ('Over the Horizon') 64bit
_STATISTICS_WRITING_DATE_UTC             : 2016-12-02 00:00:04
_STATISTICS_TAGS                         : BPS DURATION NUMBER_OF_FRAMES NUMBER_OF_BYTES

Text #3
ID                                       : 6
Format                                   : UTF-8
Codec ID                                 : S_TEXT/UTF8
Codec ID/Info                            : UTF-8 Plain Text
Title                                    : NON UDENTI ENG
Language                                 : English
Default                                  : No
Forced                                   : No
DURATION                                 : 01:56:31.568000000
NUMBER_OF_FRAMES                         : 1726
NUMBER_OF_BYTES                          : 61910
_STATISTICS_WRITING_APP                  : mkvmerge v8.3.0 ('Over the Horizon') 64bit
_STATISTICS_WRITING_DATE_UTC             : 2016-12-02 00:00:04
_STATISTICS_TAGS                         : BPS DURATION NUMBER_OF_FRAMES NUMBER_OF_BYTES

Menu
00:00:00.000                             : :Chapter 1
00:09:01.666                             : :Chapter 2
00:17:00.686                             : :Chapter 3
00:24:48.654                             : :Chapter 4
00:28:36.882                             : :Chapter 5
00:35:12.193                             : :Chapter 6
00:42:31.340                             : :Chapter 7
00:51:42.725                             : :Chapter 8
00:57:40.832                             : :Chapter 9
01:02:47.806                             : :Chapter 10
01:07:41.474                             : :Chapter 11
01:17:04.662                             : :Chapter 12
01:24:18.553                             : :Chapter 13
01:31:43.832                             : :Chapter 14
01:40:58.970                             : :Chapter 15
01:47:44.249                             : :Chapter 16
01:52:50.222                             : :Chapter 17
01:58:14.129                             : :Chapter 18



[/spoiler]

[/center]

Info: Per scaricare devi usare un client come uTorrent o Transmission
AnnounceURL
udp://tracker.coppersurfer.tk:6969/announce
Hash e28b34f5f717dcf777c96f6fbce5d1e6adbea306
Peers seeds: 236 , leech: 73
Size 3.46 GB
Completato 3540x
Aggiunto 25.07.17 - 11:07:10
Uploader   robbyrs
Votazione (Voti: 3)


Condividi questo bittorrent:


html/blog:


bbcode/forum:




Aggiungi Commento


counter