* Dettagli Torrent   globale  | Commenti (1) 


- Arctic Blast - Attacco glaciale (2010).H264.Italian.English.Ac3.iCV-MIRCrew -


Download via torrent:
Categoria bittorrent BDRip
Descrizione
Arctic Blast - Attacco glaciale (2010).H264.Italian.English.Ac3.iCV-MIRCrew


[center]by www.icv-crew.org


NO FOUND ONLY ORIGINAL RELEASE



My release is always in double track audio italian and Original audio
for select it use VLC or dvd player home
not use wmp

Attacco glaciale - Arctic Blast (2010)







Titolo originale Arctic Blast
Lingua originale inglese
Paese di produzione Australia, Canada
Anno 2010
Durata 92 min
Genere fantascienza
Regia Brian Trenchard-Smith
Soggetto Jason Bourque
Produttore esecutivo Antony I. Ginnane, Tom Berry, Pierre David
Casa di produzione Screen Tasmania
Montaggio Robert Newton
Effetti speciali Brian Pearce
Musiche Mario Sévigny
Costumi Joanne Collins




   Michael Shanks: Jack Tate
   Alexandra Davies: Emma Stuart Tate
   Saskia Hampele: Zoe
   Indiana Evans: Naomi
   Robert Mammone: Charlie Barker
   Bruce Davison: Winslaw
   Judith Baribeau: Tammy
   Nicholas Falk: Brent Durant
   Alan Andrews: Harold Stuart
   Helen Edwards: Margaret Stuart
   Abbey-Rose Leed: giovane donna
   Jakalyn Gatward: Franny
   Bodane Hatton: Jarrod




Una eclissi di Sole riesce a far aprire una falla nello strato di ozono, da cui fuoriesce una massa gelida letale, che congela all'istante tutto ciò che incontra. L'evento è inizialmente localizzato nel sud dell'Australia, dove si contano le prime vittime...............



When a solar eclipse sends a colossal blast of super chilled air towards the earth, it then sets off a catastrophic chain of events that threatens to engulf the world in ice and begin a new Ice Age.











[spoiler]
General
Unique ID                                : 333018162993940301119981436927467395868 (0xFA88F7183B238D0A8F43C464ACC11B1C)
Complete name                            : Arctic Blast (2010).H264.ita.eng.sub.ita.iCV-MIRCrew.mkv
Format                                   : Matroska
Format version                           : Version 2
File size                                : 1.07 GiB
Duration                                 : 1h 31mn
Overall bit rate                         : 1 670 Kbps
Encoded date                             : UTC 2017-07-10T17:07:20Z
Writing application                      : HandBrake 0.10.5 2016021100
Writing library                          : Lavf55.12.0

Video
ID                                       : 1
Format                                   : AVC
Format/Info                              : Advanced Video Codec
Format profile                           : [email protected]
Format settings, CABAC                   : Yes
Format settings, ReFrames                : 4 frames
Codec ID                                 : V_MPEG4/ISO/AVC
Duration                                 : 1h 31mn
Bit rate                                 : 1 290 Kbps
Width                                    : 688 pixels
Height                                   : 384 pixels
Display aspect ratio                     : 16:9
Frame rate mode                          : Variable / Variable
Frame rate                               : 23.976 fps
Color space                              : YUV
Chroma subsampling                       : 4:2:0
Bit depth                                : 8 bits
Scan type                                : Progressive
Bits/(Pixel*Frame)                       : 0.204
Stream size                              : 822 MiB (75%)
Writing library                          : x264 core 142 r2479 dd79a61
Encoding settings                        : cabac=1 / ref=1 / deblock=1:-1:-1 / analyse=0x1:0x111 / me=hex / subme=2 / psy=1 / psy_rd=1.00:0.15 / mixed_ref=0 / me_range=16 / chroma_me=1 / trellis=0 / 8x8dct=0 / cqm=0 / deadzone=21,11 / fast_pskip=1 / chroma_qp_offset=0 / threads=12 / lookahead_threads=3 / sliced_threads=0 / nr=0 / decimate=1 / interlaced=0 / bluray_compat=0 / constrained_intra=0 / bframes=3 / b_pyramid=2 / b_adapt=1 / b_bias=0 / direct=1 / weightb=1 / open_gop=0 / weightp=1 / keyint=240 / keyint_min=24 / scenecut=40 / intra_refresh=0 / rc_lookahead=10 / rc=abr / mbtree=1 / bitrate=1290 / ratetol=1.0 / qcomp=0.60 / qpmin=0 / qpmax=69 / qpstep=4 / vbv_maxrate=20000 / vbv_bufsize=25000 / nal_hrd=none / filler=0 / ip_ratio=1.40 / aq=1:1.00
Default                                  : Yes
Forced                                   : No
Color primaries                          : BT.709-5, BT.1361, IEC 61966-2-4, SMPTE RP177
Transfer characteristics                 : BT.709-5, BT.1361
Matrix coefficients                      : BT.709-5, BT.1361, IEC 61966-2-4 709, SMPTE RP177

Audio #1
ID                                       : 2
Format                                   : AC-3
Format/Info                              : Audio Coding 3
Mode extension                           : CM (complete main)
Codec ID                                 : A_AC3
Duration                                 : 1h 31mn
Bit rate mode                            : Constant
Bit rate                                 : 192 Kbps
Channel(s)                               : 2 channels
Channel positions                        : Front: L R
Sampling rate                            : 48.0 KHz
Bit depth                                : 16 bits
Compression mode                         : Lossy
Delay relative to video                  : 1mn 5s
Stream size                              : 126 MiB (12%)
Title                                    : Stereo
Language                                 : Italian
Default                                  : Yes
Forced                                   : No

Audio #2
ID                                       : 3
Format                                   : AC-3
Format/Info                              : Audio Coding 3
Mode extension                           : CM (complete main)
Codec ID                                 : A_AC3
Duration                                 : 1h 31mn
Bit rate mode                            : Constant
Bit rate                                 : 192 Kbps
Channel(s)                               : 2 channels
Channel positions                        : Front: L R
Sampling rate                            : 48.0 KHz
Bit depth                                : 16 bits
Compression mode                         : Lossy
Delay relative to video                  : 1mn 5s
Stream size                              : 126 MiB (12%)
Title                                    : Stereo
Language                                 : English
Default                                  : No
Forced                                   : No

Text
ID                                       : 4
Format                                   : ASS
Codec ID                                 : S_TEXT/ASS
Codec ID/Info                            : Advanced Sub Station Alpha
Compression mode                         : Lossless
Language                                 : Italian
Default                                  : No
Forced                                   : No



[/spoiler]

[/center]

Info: Per scaricare devi usare un client come uTorrent o Transmission
AnnounceURL
udp://tracker.coppersurfer.tk:6969/announce
Hash ca6c1102ee123eddde460ca2ae9e9e950c2cae9e
Peers seeds: 58 , leech: 9
Size 1.07 GB
Completato 1895x
Aggiunto 25.07.17 - 04:07:57
Uploader   robbyrs
Votazione (Voti: 1)


Condividi questo bittorrent:


html/blog:


bbcode/forum:




Aggiungi Commento
Ultimi commenti
 jackal98jackal98   
grazie
26/07 05.17
Tutti commenti (1)


counter