* Dettagli Torrent   globale  | Commenti (0) 


- Non bussate a quella porta (2016).H264.Italian.English.Ac3.5.1.sub.ita.iCV-MIRCrew -


Download via torrent:
Categoria bittorrent BDRip
Descrizione
Don't knock twice - Non bussate a quella porta (2016).H264.Italian.English.Ac3.5.1.sub.ita.iCV-MIRCrew


[center]by www.icv-crew.org


NO FOUND ONLY ORIGINAL RELEASE



My release is always in double track audio italian and Original audio
for select it use VLC or dvd player home
not use wmp

Non bussate a quella porta - Don't knock twice (2016)







Titolo Originale: Don’t Knock Twice
Regia: Caradog W. JamesNon Bussate a Quella Porta (2017)
Attori: Katee Sackhoff, Lucy Boynton, Richard Mylan
Genere: Horror
Nazione: Inghilterra
Durata: 1h 33?



Naomi Watts, Jacob Tremblay, Oliver Platt, Charlie Heaton, David Cubitt, Tim Post, Crystal Balint, Clémentine Poidatz



Un'inquietante leggenda urbana coinvolge una casa abbandonata presumibilmente abitata da una vendicativa strega. Quando la tormentata adolescente Chloe (Lucy Boynton) bussa a quella porta una notte, non ha idea di quale orrore stia per scatenare.........



A mother desperate to reconnect with her troubled daughter becomes embroiled in the urban legend of a demonic witch.












[spoiler]
General
Unique ID                                : 150710837369917496210712283059084475028 (0x7161D9F9820C16C06D258F651F4A3A94)
Complete name                            : Non bussate a quella porta - Don't knock twice (2016).H264.ita.eng.sub.ita.iCV-MIRCrew.mkv
Format                                   : Matroska
Format version                           : Version 2
File size                                : 1.41 GiB
Duration                                 : 1h 32mn
Overall bit rate                         : 2 176 Kbps
Movie name                               : www.icv-crew.org
Encoded date                             : UTC 2017-07-15 16:47:05
Writing application                      : Lavf54.63.100
Writing library                          : Lavf54.63.100
COPYRIGHT                                : robbyrs

Video
ID                                       : 1
Format                                   : AVC
Format/Info                              : Advanced Video Codec
Format profile                           : [email protected]
Format settings, CABAC                   : Yes
Format settings, ReFrames                : 2 frames
Codec ID                                 : V_MPEG4/ISO/AVC
Duration                                 : 1h 32mn
Bit rate                                 : 1 290 Kbps
Width                                    : 720 pixels
Height                                   : 300 pixels
Display aspect ratio                     : 2.40:1
Frame rate mode                          : Variable
Frame rate                               : 23.976 fps
Color space                              : YUV
Chroma subsampling                       : 4:2:0
Bit depth                                : 8 bits
Scan type                                : Progressive
Bits/(Pixel*Frame)                       : 0.249
Stream size                              : 822 MiB (57%)
Writing library                          : x264 core 130 r2273
Encoding settings                        : cabac=1 / ref=2 / deblock=1:0:0 / analyse=0x1:0x131 / me=hex / subme=7 / psy=1 / psy_rd=1.00:0.00 / mixed_ref=0 / me_range=16 / chroma_me=1 / trellis=1 / 8x8dct=0 / cqm=0 / deadzone=21,11 / fast_pskip=1 / chroma_qp_offset=-2 / threads=12 / lookahead_threads=2 / sliced_threads=0 / nr=0 / decimate=1 / interlaced=0 / bluray_compat=0 / constrained_intra=0 / bframes=3 / b_pyramid=0 / b_adapt=1 / b_bias=0 / direct=3 / weightb=1 / open_gop=0 / weightp=2 / keyint=230 / keyint_min=23 / scenecut=40 / intra_refresh=0 / rc_lookahead=40 / rc=abr / mbtree=1 / bitrate=1290 / ratetol=1.0 / qcomp=0.60 / qpmin=10 / qpmax=69 / qpstep=4 / vbv_maxrate=24000 / vbv_bufsize=24000 / nal_hrd=none / ip_ratio=1.40 / aq=1:1.00
Language                                 : Italian
Default                                  : Yes
Forced                                   : No
DURATION                                 : 01:32:53.318000000
NUMBER_OF_FRAMES                         : 133626
NUMBER_OF_BYTES                          : 6616117502
_STATISTICS_WRITING_APP                  : mkvmerge v9.5.0 ('Quiet Fire') 32bit
_STATISTICS_WRITING_DATE_UTC             : 2017-07-09 19:20:19
_STATISTICS_TAGS                         : BPS DURATION NUMBER_OF_FRAMES NUMBER_OF_BYTES

Audio #1
ID                                       : 2
Format                                   : AC-3
Format/Info                              : Audio Coding 3
Mode extension                           : CM (complete main)
Codec ID                                 : A_AC3
Duration                                 : 1h 32mn
Bit rate mode                            : Constant
Bit rate                                 : 448 Kbps
Channel(s)                               : 6 channels
Channel positions                        : Front: L C R, Side: L R, LFE
Sampling rate                            : 48.0 KHz
Bit depth                                : 16 bits
Compression mode                         : Lossy
Delay relative to video                  : 1mn 5s
Stream size                              : 298 MiB (21%)
Language                                 : Italian
Default                                  : No
Forced                                   : No
DURATION                                 : 01:32:53.344000000
NUMBER_OF_FRAMES                         : 174167
NUMBER_OF_BYTES                          : 445867520
_STATISTICS_WRITING_APP                  : mkvmerge v9.5.0 ('Quiet Fire') 32bit
_STATISTICS_WRITING_DATE_UTC             : 2017-07-09 19:20:19
_STATISTICS_TAGS                         : BPS DURATION NUMBER_OF_FRAMES NUMBER_OF_BYTES

Audio #2
ID                                       : 3
Format                                   : AC-3
Format/Info                              : Audio Coding 3
Mode extension                           : CM (complete main)
Codec ID                                 : A_AC3
Duration                                 : 1h 32mn
Bit rate mode                            : Constant
Bit rate                                 : 448 Kbps
Channel(s)                               : 6 channels
Channel positions                        : Front: L C R, Side: L R, LFE
Sampling rate                            : 48.0 KHz
Bit depth                                : 16 bits
Compression mode                         : Lossy
Delay relative to video                  : 1mn 5s
Stream size                              : 298 MiB (21%)
Language                                 : English
Default                                  : No
Forced                                   : No
DURATION                                 : 01:32:53.344000000
NUMBER_OF_FRAMES                         : 522501
NUMBER_OF_BYTES                          : 1051272180
_STATISTICS_WRITING_APP                  : mkvmerge v9.5.0 ('Quiet Fire') 32bit
_STATISTICS_WRITING_DATE_UTC             : 2017-07-09 19:20:19
_STATISTICS_TAGS                         : BPS DURATION NUMBER_OF_FRAMES NUMBER_OF_BYTES

Text #1
ID                                       : 4
Format                                   : ASS
Codec ID                                 : S_TEXT/ASS
Codec ID/Info                            : Advanced Sub Station Alpha
Compression mode                         : Lossless
Title                                    : Sub. Ita. Forced
Language                                 : Italian
Default                                  : Yes
Forced                                   : Yes
DURATION                                 : 01:16:45.558000000
NUMBER_OF_FRAMES                         : 4
NUMBER_OF_BYTES                          : 82
_STATISTICS_WRITING_APP                  : mkvmerge v9.5.0 ('Quiet Fire') 32bit
_STATISTICS_WRITING_DATE_UTC             : 2017-07-09 19:20:19
_STATISTICS_TAGS                         : BPS DURATION NUMBER_OF_FRAMES NUMBER_OF_BYTES

Text #2
ID                                       : 5
Format                                   : ASS
Codec ID                                 : S_TEXT/ASS
Codec ID/Info                            : Advanced Sub Station Alpha
Compression mode                         : Lossless
Title                                    : Sub. Ita.
Language                                 : Italian
Default                                  : No
Forced                                   : No
DURATION                                 : 01:27:36.708000000
NUMBER_OF_FRAMES                         : 639
NUMBER_OF_BYTES                          : 18534
_STATISTICS_WRITING_APP                  : mkvmerge v9.5.0 ('Quiet Fire') 32bit
_STATISTICS_WRITING_DATE_UTC             : 2017-07-09 19:20:19
_STATISTICS_TAGS                         : BPS DURATION NUMBER_OF_FRAMES NUMBER_OF_BYTES

Menu
00:00:00.000                             : 01)00:00:00:000
00:07:55.475                             : 02)00:07:55:475
00:15:08.908                             : 03)00:15:08:908
00:23:54.850                             : 04)00:23:54:850
00:30:19.234                             : 05)00:30:19:234
00:38:30.725                             : 06)00:38:30:725
00:46:25.616                             : 07)00:46:25:616
00:52:42.576                             : 000:52:42:576
01:02:11.144                             : 09)01:02:11:144
01:09:27.788                             : 10)01:09:27:788
01:19:02.571                             : 11)01:19:02:571
01:24:59.928                             : 12)01:24:59:928
01:32:53.276                             : 13)01:32:53:276


[/spoiler]

[/center]

Info: Per scaricare devi usare un client come uTorrent o Transmission
AnnounceURL
udp://tracker.coppersurfer.tk:6969/announce
Hash 733633d33f6d7769916da1bbfe0c67351ff22eda
Peers seeds: 58 , leech: 16
Size 1.41 GB
Completato 1123x
Aggiunto 24.07.17 - 05:07:36
Uploader   robbyrs
Votazione (Voti: 0)


Condividi questo bittorrent:


html/blog:


bbcode/forum:




Aggiungi Commento


counter