* Dettagli Torrent   globale  | Commenti (0) 


- One Piece - Movie 6 - L Isola Segreta del Barone Omatsuri (2005).H264.Italian.Jpn.Ac3.sub.ita.iCV-MI -


Download via torrent:
Categoria bittorrent Anime
Descrizione
One Piece - Movie 6 - L'Isola Segreta del Barone Omatsuri (2005).H264.Italian.Jpn.Ac3.sub.ita.iCV-MIRCrew

[center]by www.icv-crew.org


NO FOUND ONLY ORIGINAL RELEASE



My release is always in double track audio italian and Original audio
for select it use VLC or dvd player home
not use wmp

One Piece - Movie 6 - L'Isola Segreta del Barone Omatsuri (2005)







Titolo originale ONE PIECE THE MOVIE ??????????? (ONE PIECE THE MOVIE: Omatsuri danshaku to himitsu no shima)
Lingua originale giapponese
Paese di produzione Giappone
Anno 2005
Durata 92 min
Rapporto 1.78:1
Genere animazione, azione, commedia, drammatico, giallo
Regia Mamoru Hosoda
Sceneggiatura Masahiro Ito
Produttore Kazuo Shiiba
Casa di produzione Fuji TV, Shueisha, Toei Animation
Distribuzione (Italia) Mediaset
Fotografia Tomokazu Shiratori
Montaggio Masahiro Got?
Effetti speciali Ken Hoshino, Masayuki Kochi, Nao Ota, Nobuhiro Shimokawa, Toshio Katsuoka, Yumi Ushiyama
Musiche Kazuhiko Sawaguchi, K?hei Tanaka, Maruo Minoru
Art director Tatsuya Kushida
Character design Chikashi Kubota, Sushio, Takaaki Yamashita
Animatori Chikashi Kubota, Sushio, Takaaki Yamashita




Doppiatori italiani

   Giorgio Bonino: Barone Omatsuri
   Renato Novara: Monkey D. Rufy
   Emanuela Pacotto: Nami
   Serena Clerici: Daisy
   Lorenzo Scattorin: Sanji
   Federica Valenti: TonyTony Chopper
   Luca Bottale: Usop
   Patrizio Prata: Roronoa Zoro
   Patrizia Mottola: DJ Kappa
   Sergio Romanò: Muchigoro, Kotetsu
   Patrizia Scianca: Nico Robin
   Marcella Silvestri: Rick
   Elisabetta Spinelli: Rosa
   Marco Balzarotti: "Papà"
   Mario Scarabelli: Keroshot
   Riccardo Rovatti: Keroji
   Lorella De Luca: Keroko
   Riccardo Peroni: Brief




Dopo averne trovato la mappa, Rufy e la sua ciurma decidono di visitare l'isola Omatsuri dove tutti gli abitanti hanno una strana piantina sulla testa. Il capo di quest'isola è il barone Omatsuri che li sfida ad affrontare dure prove in cambio dell'accesso a luoghi per rilassarsi ed essi accettano.



The Straw Hat Pirates received an advertisement on a recreational island. The offers all looked promising, so they sailed to the island for an opportunity to kick back and relax from their ...











[spoiler]
General
Unique ID                                : 166041261861669639222949122890333214815 (0x7CEA62422E059082B35745929598D85F)
Complete name                            : One Piece - Movie 6 - L'Isola Segreta del Barone Omatsuri.h264.ita.jpn.sub.ita.iCV-MIRCrew.mkv
Format                                   : Matroska
Format version                           : Version 2
File size                                : 1.06 GiB
Duration                                 : 1h 31mn
Overall bit rate                         : 1 667 Kbps
Movie name                               : www.icv-crew.org
Encoded date                             : UTC 2017-06-09 20:03:27
Writing application                      : Lavf54.63.100
Writing library                          : Lavf54.63.100
COPYRIGHT                                : robbyrs

Video
ID                                       : 1
Format                                   : AVC
Format/Info                              : Advanced Video Codec
Format profile                           : [email protected]
Format settings, CABAC                   : Yes
Format settings, ReFrames                : 2 frames
Codec ID                                 : V_MPEG4/ISO/AVC
Duration                                 : 1h 31mn
Bit rate                                 : 1 290 Kbps
Width                                    : 720 pixels
Height                                   : 404 pixels
Display aspect ratio                     : 16:9
Frame rate mode                          : Variable
Frame rate                               : 23.976 fps
Color space                              : YUV
Chroma subsampling                       : 4:2:0
Bit depth                                : 8 bits
Scan type                                : Progressive
Bits/(Pixel*Frame)                       : 0.185
Stream size                              : 817 MiB (75%)
Title                                    : One Piece Movie 6 L' Isola Segreta del Barone Omatsuri
Writing library                          : x264 core 130 r2273
Encoding settings                        : cabac=1 / ref=2 / deblock=1:0:0 / analyse=0x1:0x131 / me=hex / subme=7 / psy=1 / psy_rd=1.00:0.00 / mixed_ref=0 / me_range=16 / chroma_me=1 / trellis=1 / 8x8dct=0 / cqm=0 / deadzone=21,11 / fast_pskip=1 / chroma_qp_offset=-2 / threads=12 / lookahead_threads=2 / sliced_threads=0 / nr=0 / decimate=1 / interlaced=0 / bluray_compat=0 / constrained_intra=0 / bframes=3 / b_pyramid=0 / b_adapt=1 / b_bias=0 / direct=3 / weightb=1 / open_gop=0 / weightp=2 / keyint=230 / keyint_min=23 / scenecut=40 / intra_refresh=0 / rc_lookahead=40 / rc=abr / mbtree=1 / bitrate=1290 / ratetol=1.0 / qcomp=0.60 / qpmin=10 / qpmax=69 / qpstep=4 / vbv_maxrate=24000 / vbv_bufsize=24000 / nal_hrd=none / ip_ratio=1.40 / aq=1:1.00
Language                                 : Italian
Default                                  : Yes
Forced                                   : No
DURATION                                 : 01:31:25.438000000
NUMBER_OF_FRAMES                         : 131519
NUMBER_OF_BYTES                          : 3467854642
_STATISTICS_WRITING_APP                  : mkvmerge v7.1.0 ('Good Love') 32bit built on Jul 27 2014 12:59:18
_STATISTICS_WRITING_DATE_UTC             : 2014-11-15 11:14:05
_STATISTICS_TAGS                         : BPS DURATION NUMBER_OF_FRAMES NUMBER_OF_BYTES

Audio #1
ID                                       : 2
Format                                   : AC-3
Format/Info                              : Audio Coding 3
Mode extension                           : CM (complete main)
Codec ID                                 : A_AC3
Duration                                 : 1h 31mn
Bit rate mode                            : Constant
Bit rate                                 : 192 Kbps
Channel(s)                               : 2 channels
Channel positions                        : Front: L R
Sampling rate                            : 48.0 KHz
Bit depth                                : 16 bits
Compression mode                         : Lossy
Delay relative to video                  : 1mn 5s
Stream size                              : 126 MiB (12%)
Title                                    : Italiano AC3 2.0
Language                                 : Italian
Default                                  : Yes
Forced                                   : No
DURATION                                 : 01:31:24.608000000
NUMBER_OF_FRAMES                         : 171394
NUMBER_OF_BYTES                          : 131630592
_STATISTICS_WRITING_APP                  : mkvmerge v7.1.0 ('Good Love') 32bit built on Jul 27 2014 12:59:18
_STATISTICS_WRITING_DATE_UTC             : 2014-11-15 11:14:05
_STATISTICS_TAGS                         : BPS DURATION NUMBER_OF_FRAMES NUMBER_OF_BYTES

Audio #2
ID                                       : 3
Format                                   : AC-3
Format/Info                              : Audio Coding 3
Mode extension                           : CM (complete main)
Codec ID                                 : A_AC3
Duration                                 : 1h 31mn
Bit rate mode                            : Constant
Bit rate                                 : 192 Kbps
Channel(s)                               : 2 channels
Channel positions                        : Front: L R
Sampling rate                            : 48.0 KHz
Bit depth                                : 16 bits
Compression mode                         : Lossy
Delay relative to video                  : 1mn 5s
Stream size                              : 126 MiB (12%)
Title                                    : Giapponese AC3 5.1
Language                                 : Japanese
Default                                  : No
Forced                                   : No
DURATION                                 : 01:31:24.544000000
NUMBER_OF_FRAMES                         : 171392
NUMBER_OF_BYTES                          : 438763520
_STATISTICS_WRITING_APP                  : mkvmerge v7.1.0 ('Good Love') 32bit built on Jul 27 2014 12:59:18
_STATISTICS_WRITING_DATE_UTC             : 2014-11-15 11:14:05
_STATISTICS_TAGS                         : BPS DURATION NUMBER_OF_FRAMES NUMBER_OF_BYTES

Text #1
ID                                       : 4
Format                                   : ASS
Codec ID                                 : S_TEXT/ASS
Codec ID/Info                            : Advanced Sub Station Alpha
Compression mode                         : Lossless
Title                                    : Cartelli ASS
Language                                 : Italian
Default                                  : Yes
Forced                                   : No
DURATION                                 : 01:31:08.170000000
NUMBER_OF_FRAMES                         : 46
NUMBER_OF_BYTES                          : 4243
_STATISTICS_WRITING_APP                  : mkvmerge v7.1.0 ('Good Love') 32bit built on Jul 27 2014 12:59:18
_STATISTICS_WRITING_DATE_UTC             : 2014-11-15 11:14:05
_STATISTICS_TAGS                         : BPS DURATION NUMBER_OF_FRAMES NUMBER_OF_BYTES

Text #2
ID                                       : 5
Format                                   : ASS
Codec ID                                 : S_TEXT/ASS
Codec ID/Info                            : Advanced Sub Station Alpha
Compression mode                         : Lossless
Title                                    : Dialoghi ASS
Language                                 : Italian
Default                                  : No
Forced                                   : No
DURATION                                 : 01:31:08.170000000
NUMBER_OF_FRAMES                         : 1469
NUMBER_OF_BYTES                          : 90244
_STATISTICS_WRITING_APP                  : mkvmerge v7.1.0 ('Good Love') 32bit built on Jul 27 2014 12:59:18
_STATISTICS_WRITING_DATE_UTC             : 2014-11-15 11:14:05
_STATISTICS_TAGS                         : BPS DURATION NUMBER_OF_FRAMES NUMBER_OF_BYTES

Text #3
ID                                       : 6
Format                                   : ASS
Codec ID                                 : S_TEXT/ASS
Codec ID/Info                            : Advanced Sub Station Alpha
Compression mode                         : Lossless
Title                                    : Cartelli SRT
Language                                 : Italian
Default                                  : No
Forced                                   : No
DURATION                                 : 00:02:26.880000000
NUMBER_OF_FRAMES                         : 7
NUMBER_OF_BYTES                          : 214
_STATISTICS_WRITING_APP                  : mkvmerge v7.1.0 ('Good Love') 32bit built on Jul 27 2014 12:59:18
_STATISTICS_WRITING_DATE_UTC             : 2014-11-15 11:14:05
_STATISTICS_TAGS                         : BPS DURATION NUMBER_OF_FRAMES NUMBER_OF_BYTES

Text #4
ID                                       : 7
Format                                   : ASS
Codec ID                                 : S_TEXT/ASS
Codec ID/Info                            : Advanced Sub Station Alpha
Compression mode                         : Lossless
Title                                    : Dialoghi SRT
Language                                 : Italian
Default                                  : No
Forced                                   : No
DURATION                                 : 01:28:45.630000000
NUMBER_OF_FRAMES                         : 1427
NUMBER_OF_BYTES                          : 40360
_STATISTICS_WRITING_APP                  : mkvmerge v7.1.0 ('Good Love') 32bit built on Jul 27 2014 12:59:18
_STATISTICS_WRITING_DATE_UTC             : 2014-11-15 11:14:05
_STATISTICS_TAGS                         : BPS DURATION NUMBER_OF_FRAMES NUMBER_OF_BYTES

Menu
00:00:00.000                             : :00:00:00.000
00:01:59.828                             : :00:01:59.828
00:05:30.038                             : :00:05:30.038
00:11:50.877                             : :00:11:50.877
00:21:45.679                             : :00:21:45.679
00:26:50.692                             : :00:26:50.692
00:31:53.745                             : :00:31:53.745
00:43:07.919                             : :00:43:07.919
00:51:05.396                             : :00:51:05.396
00:55:13.977                             : :00:55:13.977
00:59:28.565                             : :00:59:28.565
01:01:44.492                             : :01:01:44.492
01:06:56.930                             : :01:06:56.930
01:13:00.751                             : :01:13:00.751
01:15:26.564                             : :01:15:26.564
01:19:17.670                             : :01:19:17.670
01:23:20.078                             : :01:23:20.078
01:27:09.433                             : :01:27:09.433


[/spoiler]

[/center]

Info: Per scaricare devi usare un client come uTorrent o Transmission
AnnounceURL
udp://tracker.coppersurfer.tk:6969/announce
Hash b98e81b17595cabefd3059ce42dc824d00a3faec
Peers seeds: 8 , leech: 3
Size 1.06 GB
Completato 134x
Aggiunto 24.07.17 - 04:07:11
Uploader   robbyrs
Votazione (Voti: 0)


Condividi questo bittorrent:


html/blog:


bbcode/forum:




Aggiungi Commento


counter