* Dettagli Torrent   globale  | Commenti (0) 


- Crazy Dirty Cops (2016).H264.Italian.English.Ac3.5.1.sub.ita.eng.iCV-MIRCrew -


Download via torrent:
Categoria bittorrent BDRip
Descrizione
War on Everyone - Crazy Dirty Cops (2016).H264.Italian.English.Ac3.5.1.sub.ita.eng.iCV-MIRCrew

[center]by www.icv-crew.org


NO FOUND ONLY ORIGINAL RELEASE



My release is always in double track audio italian and Original audio
for select it use VLC or dvd player home
not use wmp

Crazy Dirty Cops - War on Everyone (2016)







Titolo originale War on Everyone
Lingua originale inglese
Paese di produzione Regno Unito
Anno 2016
Durata 98 min
Genere commedia
Regia John Michael McDonagh
Sceneggiatura John Michael McDonagh
Produttore Chris Clark, Flora Fernandez-Marengo, Phil Hunt, Compton Ross
Produttore esecutivo Hilary Davis, Stephen Kelliher, Elliot Ross, Fenella Ross, Natascha Wharton
Casa di produzione Reprisal Films, Head Gear Films, Kreo Films FZ, Metrol Technology
Distribuzione (Italia) Movies Inspired
Fotografia Bobby Bukowski
Montaggio Chris Gill
Effetti speciali Alan Decktor, Stephen Imhoff
Musiche Lorne Balfe
Scenografia Wynn Thomas
Costumi Terry Anderson




   Alexander Skarsgård: Terry Monroe
   Michael Peña: Bob Bolaño
   Theo James: Lord James Mangan
   Tessa Thompson: Jackie Hollis
   Caleb Landry Jones: Birdwell
   Paul Reiser: tenente Gerry Stanton
   Stephanie Sigman: Dolores
   Keith Jardine: Barry Webb
   Malcolm Barrett: Reggie
   David Wilmot: Pádraic Power




Bob e Terry sono due poliziotti che rischiano la sospensione definitiva dalla polizia per via di accuse di corruzione e di abuso di ufficio, oltre che per aver aggredito un loro collega. Il loro capo intima loro di cambiare atteggiamento, perchè potrebbero compromettersi la carriera. ..............



Two corrupt cops set out to blackmail and frame every criminal unfortunate enough to cross their path. Events, however, are complicated by the arrival of someone who appears to be even more dangerous than they are.








[spoiler]
General
Unique ID                                : 215738145554662125601862996480221610618 (0xA24DA7CCAFEFA959C021FD5A49E9827A)
Complete name                            : Crazy Dirty Cops (2016).H264.ita.eng.sub.ita.eng.iCV-MIRCrew.mkv
Format                                   : Matroska
Format version                           : Version 2
File size                                : 1.51 GiB
Duration                                 : 1h 37mn
Overall bit rate                         : 2 203 Kbps
Movie name                               : www.icv-crew.org
Encoded date                             : UTC 2017-07-17 16:47:03
Writing application                      : Lavf54.63.100
Writing library                          : Lavf54.63.100
COPYRIGHT                                : robbyrs

Video
ID                                       : 1
Format                                   : AVC
Format/Info                              : Advanced Video Codec
Format profile                           : [email protected]
Format settings, CABAC                   : Yes
Format settings, ReFrames                : 2 frames
Codec ID                                 : V_MPEG4/ISO/AVC
Duration                                 : 1h 37mn
Bit rate                                 : 1 290 Kbps
Width                                    : 688 pixels
Height                                   : 288 pixels
Display aspect ratio                     : 2.40:1
Frame rate mode                          : Variable
Frame rate                               : 24.000 fps
Color space                              : YUV
Chroma subsampling                       : 4:2:0
Bit depth                                : 8 bits
Scan type                                : Progressive
Bits/(Pixel*Frame)                       : 0.271
Stream size                              : 885 MiB (57%)
Writing library                          : x264 core 130 r2273
Encoding settings                        : cabac=1 / ref=2 / deblock=1:0:0 / analyse=0x1:0x131 / me=hex / subme=7 / psy=1 / psy_rd=1.00:0.00 / mixed_ref=0 / me_range=16 / chroma_me=1 / trellis=1 / 8x8dct=0 / cqm=0 / deadzone=21,11 / fast_pskip=1 / chroma_qp_offset=-2 / threads=12 / lookahead_threads=2 / sliced_threads=0 / nr=0 / decimate=1 / interlaced=0 / bluray_compat=0 / constrained_intra=0 / bframes=3 / b_pyramid=0 / b_adapt=1 / b_bias=0 / direct=3 / weightb=1 / open_gop=0 / weightp=2 / keyint=240 / keyint_min=24 / scenecut=40 / intra_refresh=0 / rc_lookahead=40 / rc=abr / mbtree=1 / bitrate=1290 / ratetol=1.0 / qcomp=0.60 / qpmin=10 / qpmax=69 / qpstep=4 / vbv_maxrate=24000 / vbv_bufsize=24000 / nal_hrd=none / ip_ratio=1.40 / aq=1:1.00
Language                                 : Italian
Default                                  : Yes
Forced                                   : No
DURATION                                 : 01:37:54.542000000
NUMBER_OF_FRAMES                         : 140989
NUMBER_OF_BYTES                          : 2661911614
_STATISTICS_WRITING_APP                  : mkvmerge v9.9.0 ('Pick Up') 32bit
_STATISTICS_WRITING_DATE_UTC             : 2017-07-11 16:36:31
_STATISTICS_TAGS                         : BPS DURATION NUMBER_OF_FRAMES NUMBER_OF_BYTES

Audio #1
ID                                       : 2
Format                                   : AC-3
Format/Info                              : Audio Coding 3
Mode extension                           : CM (complete main)
Codec ID                                 : A_AC3
Duration                                 : 1h 37mn
Bit rate mode                            : Constant
Bit rate                                 : 448 Kbps
Channel(s)                               : 6 channels
Channel positions                        : Front: L C R, Side: L R, LFE
Sampling rate                            : 48.0 KHz
Bit depth                                : 16 bits
Compression mode                         : Lossy
Delay relative to video                  : 1mn 5s
Stream size                              : 314 MiB (20%)
Language                                 : Italian
Default                                  : Yes
Forced                                   : No
DURATION                                 : 01:37:55.680000000
NUMBER_OF_FRAMES                         : 183615
NUMBER_OF_BYTES                          : 329038080
_STATISTICS_WRITING_APP                  : mkvmerge v9.9.0 ('Pick Up') 32bit
_STATISTICS_WRITING_DATE_UTC             : 2017-07-11 16:36:31
_STATISTICS_TAGS                         : BPS DURATION NUMBER_OF_FRAMES NUMBER_OF_BYTES

Audio #2
ID                                       : 3
Format                                   : AC-3
Format/Info                              : Audio Coding 3
Mode extension                           : CM (complete main)
Codec ID                                 : A_AC3
Duration                                 : 1h 37mn
Bit rate mode                            : Constant
Bit rate                                 : 448 Kbps
Channel(s)                               : 6 channels
Channel positions                        : Front: L C R, Side: L R, LFE
Sampling rate                            : 48.0 KHz
Bit depth                                : 16 bits
Compression mode                         : Lossy
Delay relative to video                  : 1mn 5s
Stream size                              : 314 MiB (20%)
Language                                 : English
Default                                  : No
Forced                                   : No
DURATION                                 : 01:37:54.816000000
NUMBER_OF_FRAMES                         : 183588
NUMBER_OF_BYTES                          : 469985280
_STATISTICS_WRITING_APP                  : mkvmerge v9.9.0 ('Pick Up') 32bit
_STATISTICS_WRITING_DATE_UTC             : 2017-07-11 16:36:31
_STATISTICS_TAGS                         : BPS DURATION NUMBER_OF_FRAMES NUMBER_OF_BYTES

Text #1
ID                                       : 4
Format                                   : ASS
Codec ID                                 : S_TEXT/ASS
Codec ID/Info                            : Advanced Sub Station Alpha
Compression mode                         : Lossless
Title                                    : REGOLARI
Language                                 : Italian
Default                                  : No
Forced                                   : No
DURATION                                 : 01:32:03.509000000
NUMBER_OF_FRAMES                         : 1083
NUMBER_OF_BYTES                          : 42499
_STATISTICS_WRITING_APP                  : mkvmerge v9.9.0 ('Pick Up') 32bit
_STATISTICS_WRITING_DATE_UTC             : 2017-07-11 16:36:31
_STATISTICS_TAGS                         : BPS DURATION NUMBER_OF_FRAMES NUMBER_OF_BYTES

Text #2
ID                                       : 5
Format                                   : ASS
Codec ID                                 : S_TEXT/ASS
Codec ID/Info                            : Advanced Sub Station Alpha
Compression mode                         : Lossless
Title                                    : FORCED
Language                                 : Italian
Default                                  : Yes
Forced                                   : No
DURATION                                 : 01:10:18.256000000
NUMBER_OF_FRAMES                         : 4
NUMBER_OF_BYTES                          : 149
_STATISTICS_WRITING_APP                  : mkvmerge v9.9.0 ('Pick Up') 32bit
_STATISTICS_WRITING_DATE_UTC             : 2017-07-11 16:36:31
_STATISTICS_TAGS                         : BPS DURATION NUMBER_OF_FRAMES NUMBER_OF_BYTES

Text #3
ID                                       : 6
Format                                   : ASS
Codec ID                                 : S_TEXT/ASS
Codec ID/Info                            : Advanced Sub Station Alpha
Compression mode                         : Lossless
Title                                    : NON UDENTI
Language                                 : English
Default                                  : No
Forced                                   : No
DURATION                                 : 01:32:34.083000000
NUMBER_OF_FRAMES                         : 1674
NUMBER_OF_BYTES                          : 50322
_STATISTICS_WRITING_APP                  : mkvmerge v9.9.0 ('Pick Up') 32bit
_STATISTICS_WRITING_DATE_UTC             : 2017-07-11 16:36:31
_STATISTICS_TAGS                         : BPS DURATION NUMBER_OF_FRAMES NUMBER_OF_BYTES

Menu
00:00:00.000                             : :00:00:00.000
00:09:14.875                             : :00:09:14.875
00:16:29.457                             : :00:16:29.457
00:29:19.875                             : :00:29:19.875
00:38:06.083                             : :00:38:06.083
00:46:43.875                             : :00:46:43.875
00:55:52.458                             : :00:55:52.458
01:03:24.458                             : :01:03:24.458
01:12:57.457                             : :01:12:57.457
01:19:10.457                             : :01:19:10.457
01:25:15.457                             : :01:25:15.457
01:31:57.457                             : :01:31:57.457



[/spoiler]

[/center]

Info: Per scaricare devi usare un client come uTorrent o Transmission
AnnounceURL
udp://tracker.coppersurfer.tk:6969/announce
Hash bb28889ed383233215b089c51add16c49aa2a761
Peers seeds: 76 , leech: 15
Size 1.51 GB
Completato 1626x
Aggiunto 23.07.17 - 10:07:10
Uploader   robbyrs
Votazione (Voti: 1)


Condividi questo bittorrent:


html/blog:


bbcode/forum:




Aggiungi Commento


counter