* Dettagli Torrent   globale  | Commenti (0) 


- The Boss Baby - Baby Boss (2017).H264.Italian.English.Ac3.5.1.sub.ita.eng.iCV-MIRCrew [center] [co -


Download via torrent:
Categoria bittorrent BDRip
Descrizione
The Boss Baby - Baby Boss (2017).H264.Italian.English.Ac3.5.1.sub.ita.eng.iCV-MIRCrew

[center]by www.icv-crew.org



NO FOUND ONLY ORIGINAL RELEASE



My release is always in double track audio italian and Original audio
for select it use VLC or dvd player home
not use wmp

Baby Boss - The Boss Baby (2017)

PRESENTI ANCHE i SOTTOTITOLI

ESTERNI IN SRT (ita/eng)








   DATA USCITA: 20 aprile 2017
   GENERE: Animazione, Commedia, Family
   ANNO: 2017
   REGIA: Tom McGrath
   ATTORI: Alec Baldwin, Lisa Kudrow, Steve Buscemi, Jimmy Kimmel, Tobey Maguire
   PAESE: USA
   DURATA: 97 Min
   FORMATO: 2D e 3D
   DISTRIBUZIONE: 20th Century Fox




***************************



BABY BOSS è una divertente commedia per grandi e piccoli, che racconta cosa succede all'interno di una famiglia quando arriva un nuovo bebè. Il tutto raccontato dal punto di vista fantasioso di un bambino di 7 anni, di nome Tim. Nella testa di un bambino di sette anni, l'arrivo a casa di un fratellino è infatti un evento misterioso e affascinante,...............



Seven-year-old Tim Templeton has always been a boy of an overactive imagination, and for the past seven years, life was all peaches for him, getting all the love and affection from his caring parents. However, life will never be the same and Tim won't be the centre of attention anymore as the arrival of an improbable new brother named Boss Baby..............










[spoiler]
General
Unique ID                                : 282730024312793612335395628216997544984 (0xD4B3D26E99CD0713A2064651249E841
Complete name                            : Baby Boss (2017).ita.eng.sub.ita.eng.iCV-MIRCrew.mkv
Format                                   : Matroska
Format version                           : Version 2
File size                                : 1.50 GiB
Duration                                 : 1h 37mn
Overall bit rate                         : 2 197 Kbps
Movie name                               : www.icv-crew.org
Encoded date                             : UTC 2017-07-22 14:13:05
Writing application                      : Lavf54.63.100
Writing library                          : Lavf54.63.100
COPYRIGHT                                : robbyrs
DATE                                     : 2017

Video
ID                                       : 1
Format                                   : AVC
Format/Info                              : Advanced Video Codec
Format profile                           : [email protected]
Format settings, CABAC                   : Yes
Format settings, ReFrames                : 4 frames
Codec ID                                 : V_MPEG4/ISO/AVC
Duration                                 : 1h 37mn
Bit rate                                 : 1 290 Kbps
Width                                    : 720 pixels
Height                                   : 304 pixels
Display aspect ratio                     : 2.35:1
Original display aspect ratio            : 2.35:1
Frame rate mode                          : Variable
Frame rate                               : 23.976 fps
Color space                              : YUV
Chroma subsampling                       : 4:2:0
Bit depth                                : 8 bits
Scan type                                : Progressive
Bits/(Pixel*Frame)                       : 0.246
Stream size                              : 877 MiB (57%)
Writing library                          : x264 core 130 r2273
Encoding settings                        : cabac=1 / ref=4 / deblock=1:1:1 / analyse=0x1:0x131 / me=hex / subme=7 / psy=1 / psy_rd=0.40:0.00 / mixed_ref=0 / me_range=16 / chroma_me=1 / trellis=1 / 8x8dct=0 / cqm=0 / deadzone=21,11 / fast_pskip=1 / chroma_qp_offset=-2 / threads=12 / lookahead_threads=2 / sliced_threads=0 / nr=0 / decimate=1 / interlaced=0 / bluray_compat=0 / constrained_intra=0 / bframes=5 / b_pyramid=0 / b_adapt=1 / b_bias=0 / direct=3 / weightb=1 / open_gop=0 / weightp=2 / keyint=230 / keyint_min=23 / scenecut=40 / intra_refresh=0 / rc_lookahead=40 / rc=abr / mbtree=1 / bitrate=1290 / ratetol=1.0 / qcomp=0.60 / qpmin=10 / qpmax=69 / qpstep=4 / vbv_maxrate=24000 / vbv_bufsize=24000 / nal_hrd=none / ip_ratio=1.40 / aq=1:0.60
Language                                 : Italian
Default                                  : Yes
Forced                                   : No
DURATION                                 : 01:37:30.804000000
NUMBER_OF_FRAMES                         : 140279
NUMBER_OF_BYTES                          : 4480966380
_STATISTICS_WRITING_APP                  : mkvmerge v8.7.0 ('All of the above') 64bit
_STATISTICS_WRITING_DATE_UTC             : 2017-07-18 21:23:20
_STATISTICS_TAGS                         : BPS DURATION NUMBER_OF_FRAMES NUMBER_OF_BYTES

Audio #1
ID                                       : 2
Format                                   : AC-3
Format/Info                              : Audio Coding 3
Mode extension                           : CM (complete main)
Codec ID                                 : A_AC3
Duration                                 : 1h 37mn
Bit rate mode                            : Constant
Bit rate                                 : 448 Kbps
Channel(s)                               : 6 channels
Channel positions                        : Front: L C R, Side: L R, LFE
Sampling rate                            : 48.0 KHz
Bit depth                                : 16 bits
Compression mode                         : Lossy
Delay relative to video                  : 1mn 5s
Stream size                              : 312 MiB (20%)
Language                                 : Italian
Default                                  : No
Forced                                   : No
DURATION                                 : 01:37:30.880000000
NUMBER_OF_FRAMES                         : 182840
NUMBER_OF_BYTES                          : 468070400
_STATISTICS_WRITING_APP                  : mkvmerge v8.7.0 ('All of the above') 64bit
_STATISTICS_WRITING_DATE_UTC             : 2017-07-18 21:23:20
_STATISTICS_TAGS                         : BPS DURATION NUMBER_OF_FRAMES NUMBER_OF_BYTES

Audio #2
ID                                       : 3
Format                                   : AC-3
Format/Info                              : Audio Coding 3
Mode extension                           : CM (complete main)
Codec ID                                 : A_AC3
Duration                                 : 1h 37mn
Bit rate mode                            : Constant
Bit rate                                 : 448 Kbps
Channel(s)                               : 6 channels
Channel positions                        : Front: L C R, Side: L R, LFE
Sampling rate                            : 48.0 KHz
Bit depth                                : 16 bits
Compression mode                         : Lossy
Delay relative to video                  : 1mn 5s
Stream size                              : 312 MiB (20%)
Language                                 : English
Default                                  : No
Forced                                   : No
DURATION                                 : 01:37:30.849000000
NUMBER_OF_FRAMES                         : 548517
NUMBER_OF_BYTES                          : 1103616320
_STATISTICS_WRITING_APP                  : mkvmerge v8.7.0 ('All of the above') 64bit
_STATISTICS_WRITING_DATE_UTC             : 2017-07-18 21:23:20
_STATISTICS_TAGS                         : BPS DURATION NUMBER_OF_FRAMES NUMBER_OF_BYTES

Text #1
ID                                       : 4
Format                                   : ASS
Codec ID                                 : S_TEXT/ASS
Codec ID/Info                            : Advanced Sub Station Alpha
Compression mode                         : Lossless
Title                                    : FORCED
Language                                 : Italian
Default                                  : Yes
Forced                                   : No
DURATION                                 : 01:32:10.024000000
NUMBER_OF_FRAMES                         : 23
NUMBER_OF_BYTES                          : 363
_STATISTICS_WRITING_APP                  : mkvmerge v8.7.0 ('All of the above') 64bit
_STATISTICS_WRITING_DATE_UTC             : 2017-07-18 21:23:20
_STATISTICS_TAGS                         : BPS DURATION NUMBER_OF_FRAMES NUMBER_OF_BYTES

Text #2
ID                                       : 5
Format                                   : ASS
Codec ID                                 : S_TEXT/ASS
Codec ID/Info                            : Advanced Sub Station Alpha
Compression mode                         : Lossless
Title                                    : REGOLARI
Language                                 : Italian
Default                                  : No
Forced                                   : No
DURATION                                 : 01:36:31.118000000
NUMBER_OF_FRAMES                         : 1590
NUMBER_OF_BYTES                          : 42967
_STATISTICS_WRITING_APP                  : mkvmerge v8.7.0 ('All of the above') 64bit
_STATISTICS_WRITING_DATE_UTC             : 2017-07-18 21:23:20
_STATISTICS_TAGS                         : BPS DURATION NUMBER_OF_FRAMES NUMBER_OF_BYTES

Text #3
ID                                       : 6
Format                                   : ASS
Codec ID                                 : S_TEXT/ASS
Codec ID/Info                            : Advanced Sub Station Alpha
Compression mode                         : Lossless
Title                                    : FORCED
Language                                 : English
Default                                  : No
Forced                                   : No
DURATION                                 : 00:00:17.100000000
NUMBER_OF_FRAMES                         : 9
NUMBER_OF_BYTES                          : 136
_STATISTICS_WRITING_APP                  : mkvmerge v8.7.0 ('All of the above') 64bit
_STATISTICS_WRITING_DATE_UTC             : 2017-07-18 21:23:20
_STATISTICS_TAGS                         : BPS DURATION NUMBER_OF_FRAMES NUMBER_OF_BYTES

Text #4
ID                                       : 7
Format                                   : ASS
Codec ID                                 : S_TEXT/ASS
Codec ID/Info                            : Advanced Sub Station Alpha
Compression mode                         : Lossless
Title                                    : NON UDENTI
Language                                 : English
Default                                  : No
Forced                                   : No
DURATION                                 : 01:36:29.492000000
NUMBER_OF_FRAMES                         : 2013
NUMBER_OF_BYTES                          : 51922
_STATISTICS_WRITING_APP                  : mkvmerge v8.7.0 ('All of the above') 64bit
_STATISTICS_WRITING_DATE_UTC             : 2017-07-18 21:23:20
_STATISTICS_TAGS                         : BPS DURATION NUMBER_OF_FRAMES NUMBER_OF_BYTES

Menu
00:00:00.000                             : :Chapter 01
00:03:45.892                             : :Chapter 03
00:08:58.287                             : :Chapter 05
00:11:45.913                             : :Chapter 07
00:14:59.565                             : :Chapter 09
00:19:38.218                             : :Chapter 11
00:22:52.788                             : :Chapter 13
00:28:27.247                             : :Chapter 15
00:30:26.115                             : :Chapter 17
00:33:45.481                             : :Chapter 19
00:36:57.256                             : :Chapter 21
00:39:18.355                             : :Chapter 23
00:42:35.344                             : :Chapter 25
00:46:20.611                             : :Chapter 27
00:51:37.719                             : :Chapter 29
00:53:25.285                             : :Chapter 31
00:56:28.718                             : :Chapter 33
00:59:35.405                             : :Chapter 35
01:04:03.172                             : :Chapter 37
01:08:15.758                             : :Chapter 39
01:11:29.910                             : :Chapter 41
01:16:25.247                             : :Chapter 43
01:23:10.110                             : :Chapter 45
01:27:36.960                             : :Chapter 47
01:37:30.594                             : :Chapter 49



[/spoiler]

[/center]

Info: Per scaricare devi usare un client come uTorrent o Transmission
AnnounceURL
udp://tracker.coppersurfer.tk:6969/announce
Hash 9c848cb09061716f3c3e58efdc79d01491ab721d
Peers seeds: 211 , leech: 55
Size 1.50 GB
Completato 3291x
Aggiunto 23.07.17 - 09:07:39
Uploader   robbyrs
Votazione (Voti: 2)


Condividi questo bittorrent:


html/blog:


bbcode/forum:




Aggiungi Commento


counter